Злой адвокат / Seong-nan Byeon-ho-sa (Чжон-хо Ах) [2015 г., детектив, WEB-DL 720p] [2D]

Ответить на тему
Статистика раздачи
Размер:  2,19 GB   |    Зарегистрирован:  1 год 5 месяцев   |    Скачан:  0 раз
Сидов:  3  [  0 KB/s  ]   Личеров:  3  [  0 KB/s  ]   Подробная статистика пиров
 
     
 
 
Автор Сообщение

Crash08 ®

Пол: Мужской

Стаж: 5 лет 10 месяцев

Сообщений: 4789

Создавать темы 24-Фев-2016 15:19

[Цитировать]

Злой адвокат / Seong-nan Byeon-ho-sa-Год выпуска: 2015
Страна: Корея Южная
Жанр: детектив
Продолжительность: 01:57:00
Перевод: Сергей Скворцов
Озвучка: Любительская двухголосая [2D]
Субтитры: Нет
В ролях: Ли Сон-Кён, Ко-Ын Ким, Чан Хён Сон, Им Вон-И, Хон Сон-док
Режиссёр: Чжон-хо Ах
Описание: Адвокату Бёну поручают странное дело об убийстве. В нём нет трупа и улик, есть лишь подозреваемый, которого и нужно защитить. Все усилия юриста идут прахом, когда его клиент сознаётся в преступлении. Однако адвокат не сдаётся так просто, его задетая гордость не позволяет ему проиграть дело. Он начинает собственное расследование…-Качество: WEB-DL 720p
Формат: MKV
Видео кодек: AVC
Аудио кодек: AC-3
Видео: 1280x536 at 29,970 fps, AVC at 2500 kbps
Аудио: AC-3, 2.0 канала, 192 kbps, 48,0 Кгц-

Рейтинг
МедиаИнфо
Формат : Matroska
Версия формата : Version 4 / Version 2
Размер файла : 2,19 Гбайт
Продолжительность : 1 ч. 56 м.
Общий поток : 2682 Кбит/сек
Дата кодирования : UTC 2016-02-23 14:41:20
Программа кодирования : mkvmerge v6.2.0 ('Promised Land') built on Apr 28 2013 12:22:01
Библиотека кодирования : libebml v1.3.0 + libmatroska v1.4.0
Видео
Идентификатор : 1
Формат : AVC
Формат/Информация : Advanced Video Codec
Профиль формата : Baseline@L3.1
Параметр CABAC формата : Нет
Параметр ReFrames формата : 1 кадр
Идентификатор кодека : V_MPEG4/ISO/AVC
Продолжительность : 1 ч. 56 м.
Битрейт : 2500 Кбит/сек
Ширина : 1280 пикселей
Высота : 536 пикселей
Соотношение сторон : 2,40:1
Режим частоты кадров : Постоянный
Частота кадров : 29,970 (30000/1001) кадров/сек
Цветовое пространство : YUV
Субдискретизация насыщенности : 4:2:0
Битовая глубина : 8 бит
Тип развёртки : Прогрессивная
Бит/(Пиксели*Кадры) : 0.122
Размер потока : 1,99 Гбайт (91%)
Библиотека кодирования : x264 core 146
Настройки программы : cabac=0 / ref=1 / deblock=1:0:0 / analyse=0x1:0x111 / me=hex / subme=2 / psy=1 / psy_rd=1.00:0.00 / mixed_ref=0 / me_range=16 / chroma_me=1 / trellis=0 / 8x8dct=0 / cqm=0 / deadzone=21,11 / fast_pskip=1 / chroma_qp_offset=0 / threads=6 / lookahead_threads=2 / sliced_threads=0 / nr=0 / decimate=1 / interlaced=0 / bluray_compat=0 / constrained_intra=0 / bframes=0 / weightp=0 / keyint=250 / keyint_min=25 / scenecut=40 / intra_refresh=0 / rc_lookahead=10 / rc=abr / mbtree=1 / bitrate=2500 / ratetol=1.0 / qcomp=0.60 / qpmin=0 / qpmax=69 / qpstep=4 / ip_ratio=1.40 / aq=1:1.00
Default : Да
Forced : Нет
Аудио
Идентификатор : 2
Формат : AC-3
Формат/Информация : Audio Coding 3
Расширение режима : CM (complete main)
Параметр Endianness формата : Big
Идентификатор кодека : A_AC3
Продолжительность : 1 ч. 56 м.
Вид битрейта : Постоянный
Битрейт : 192 Кбит/сек
Каналы : 2 канала
Расположение каналов : Front: L R
Частота : 48,0 КГц
Частота кадров : 31,250 кадров/сек (1536 spf)
Метод сжатия : С потерями
Размер потока : 161 Мбайт (7%)
Default : Да
Forced : Нет
Скриншоты
[reactorr.org].t72577.torrent
Торрент: Зарегистрирован [ 24-02-2016 15:19 ] · 71420D0DAE7673A28A1552A1FC213D22B105BCD2

Скачать .torrent

Скачать

11 KB

Статус: проверено
Скачан: 0 раз
Размер: 2,19 GB
terms.php
[Профиль] [ЛС]
Показать сообщения:    
Ответить на тему

Текущее время: 24-Авг 05:59

Часовой пояс: UTC + 3



Вы не можете начинать темы
Вы не можете отвечать на сообщения
Вы не можете редактировать свои сообщения
Вы не можете удалять свои сообщения
Вы не можете голосовать в опросах
Вы не можете прикреплять файлы к сообщениям
Вы можете скачивать файлы