Личный интерес (Анатолий Григорьев) [2015, мелодрама, детектив, HDTVRip]

Ответить на тему
Статистика раздачи
Размер:  1,37 GB   |    Зарегистрирован:  1 год 1 месяц   |    Скачан:  4 раза

Полного источника не было: 2 месяца 27 дней

 
     
 
 
Автор Сообщение

Crash08 ®

Пол: Мужской

Стаж: 5 лет 6 месяцев

Сообщений: 4789

Создавать темы 06-Мар-2016 16:19

[Цитировать]

Личный интерес[poster]http://i74.fastpic.ru/big/2016/0306/54/84b50b43ea91f151354f40b61e68c654.png[/poster]Жанр: мелодрама, детектив
Год выпуска: 2015
Продолжительность: 01:27:57
Режиссёр: Анатолий Григорьев
В ролях: Кирилл Жандаров, Галина Безрук, Алексей Нагрудный, Ирма Витовская, Валерий Бассэль, Валерия Чертилина, Ирина Калашникова, Виктор Кузнецов, Елена Дудич, Лилия Нагорная, Сергей Солопай, Игорь Гнездилов, Любовь Веселова
Описание: Татьяна, совершив побег из колонии, поселяется в доме своей покойной бабушки в глухом селе Павловка. Там она встречает Максима, который приехал в деревню, чтобы отдохнуть от городской суеты. Между ними возникает взаимное чувство. Тем временем в Павловке появляется Олег, бывший жених Татьяны...
Доп. информация:

Рип: waarheid
Сэмпл:

Качество видео: HDTVRip
Формат видео: AVI
Видео: 720x400 (1.80:1), 25 fps, XviD build 73 ~2022 kbps avg, 0.28 bit/pixel
Аудио: 48 kHz, AC3 Dolby Digital, 2/0 (L,R) ch, ~192 kbps
MediaInfo
Общее
Полное имя : Z:\Личный интерес.2015_HDTVRip_by_waarheid.avi
Формат : AVI
Формат/Информация : Audio Video Interleave
Размер файла : 1,37 Гбайт
Продолжительность : 1 ч. 27 м.
Общий поток : 2224 Кбит/сек
Программа кодирования : VirtualDubMod 1.5.10.3 | www.virtualdub-fr.org || (build 2550/release)
Видео
Идентификатор : 0
Формат : MPEG-4 Visual
Профиль формата : Advanced Simple@L5
Параметр BVOP формата : 1
Параметр QPel формата : Нет
Параметр GMC формата : Без точки перехода
Параметр матрицы формата : Выборочная
Идентификатор кодека : XVID
Идентификатор кодека/Подсказка : XviD
Продолжительность : 1 ч. 27 м.
Битрейт : 2023 Кбит/сек
Ширина : 720 пикселей
Высота : 400 пикселей
Соотношение сторон : 16:9
Частота кадров : 25,000 кадров/сек
Цветовое пространство : YUV
Субдискретизация насыщенности : 4:2:0
Битовая глубина : 8 бит
Тип развёртки : Прогрессивная
Метод сжатия : С потерями
Бит/(Пиксели*Кадры) : 0.281
Размер потока : 1,24 Гбайт (91%)
Библиотека кодирования : XviD 73
Аудио
Идентификатор : 1
Формат : AC-3
Формат/Информация : Audio Coding 3
Расширение режима : CM (complete main)
Параметр Endianness формата : Big
Идентификатор кодека : 2000
Продолжительность : 1 ч. 27 м.
Вид битрейта : Постоянный
Битрейт : 192 Кбит/сек
Каналы : 2 канала
Расположение каналов : Front: L R
Частота : 48,0 КГц
Частота кадров : 31,250 кадров/сек (1536 spf)
Метод сжатия : С потерями
Размер потока : 121 Мбайт (9%)
Выравнивание : Разделение по промежуткам
Продолжительность промежутка : 40 мс. (1,00 видеокадр)
Время предзагрузки промежутка : 500 мс.
Скриншот c названием фильма
Скриншоты
[reactorr.org].t72707.torrent
Торрент: Зарегистрирован [ 06-03-2016 16:19 ] · 53D2C8120ACB1E9EF276D63AA21E6145394AC634

Скачать .torrent

Скачать

14 KB

Статус: проверено
Скачан: 4 раз
Размер: 1,37 GB
terms.php
[Профиль] [ЛС]
Показать сообщения:    
Ответить на тему

Текущее время: 30-Апр 16:11

Часовой пояс: UTC + 3



Вы не можете начинать темы
Вы не можете отвечать на сообщения
Вы не можете редактировать свои сообщения
Вы не можете удалять свои сообщения
Вы не можете голосовать в опросах
Вы не можете прикреплять файлы к сообщениям
Вы можете скачивать файлы