Западный фронт / Seoboojeonsun (Сон-иль Чхон) [2015, Боевик, драма, комедия, военный WEB-DLRip] [DeadSno & den904]

Ответить на тему
Статистика раздачи
Размер:  1,46 GB   |    Зарегистрирован:  1 год 7 месяцев   |    Скачан:  1 раз
Сидов:  3  [  0 KB/s  ]   Личеров:  2  [  0 KB/s  ]   Подробная статистика пиров
 
     
 
 
Автор Сообщение

Crash08 ®

Пол: Мужской

Стаж: 6 лет

Сообщений: 4789

Создавать темы 17-Мар-2016 21:26

[Цитировать]

Западный фронт / Seoboojeonsun--
Год выпуска » 2015
Страна » Южная Корея
Жанр » Боевик, драма, комедия, военный
Продолжительность » 01:52:39
Перевод » Двухголосый (любительский) DeadSno & den904
Субтитры » Отсутствуют
В ролях
» Соль Гён Гу, Ли Кён Ён, Дин Доусон, Ё Чжин Гу
Режиссёр
» Сон-иль Чхон
ОПИСАНИЕ:
» События происходят во время Корейской войны, за три дня до прекращения огня. По стечению обстоятельств северокорейский и южнокорейский солдаты оказываются в одном танке...
Качество » WEB-DLRip
Формат » AVI
Видео кодек » XviD
Аудио кодек » AC3
Видео » XviD at 1 653 kb/s, 720x304 at 24.000 fps
Аудио » AC3, 192 kb/s, 2 канала, 48.0 КгцРусский
СЭМПЛ:--
Рейтинг:
Медиа инфо
Полное имя : 3apadnyy.front.2015.L2.WEBDLRip.avi
Формат : AVI
Формат/Информация : Audio Video Interleave
Размер файла : 1,46 Гбайт
Продолжительность : 1 ч. 52 м.
Общий поток : 1855 Кбит/сек
Программа кодирования : VirtualDubMod 1.5.10.3 (build 2550/release)
Библиотека кодирования : VirtualDubMod build 2550/release
Видео
Идентификатор : 0
Формат : MPEG-4 Visual
Профиль формата : Advanced Simple@L5
Параметр BVOP формата : 2
Параметр QPel формата : Нет
Параметр GMC формата : Без точки перехода
Параметр матрицы формата : Default (MPEG)
Идентификатор кодека : XVID
Идентификатор кодека/Подсказка : XviD
Продолжительность : 1 ч. 52 м.
Битрейт : 1653 Кбит/сек
Ширина : 720 пикселей
Высота : 304 пикселя
Соотношение сторон : 2,35:1
Частота кадров : 24,000 кадра/сек
Цветовое пространство : YUV
Субдискретизация насыщенности : 4:2:0
Битовая глубина : 8 бит
Тип развёртки : Прогрессивная
Метод сжатия : С потерями
Бит/(Пиксели*Кадры) : 0.315
Размер потока : 1,30 Гбайт (89%)
Библиотека кодирования : XviD 1.2.1 (UTC 2008-12-04)
Аудио
Идентификатор : 1
Формат : AC-3
Формат/Информация : Audio Coding 3
Расширение режима : CM (complete main)
Параметр Endianness формата : Big
Идентификатор кодека : 2000
Продолжительность : 1 ч. 52 м.
Вид битрейта : Постоянный
Битрейт : 192 Кбит/сек
Каналы : 2 канала
Расположение каналов : Front: L R
Частота : 48,0 КГц
Частота кадров : 31,250 кадров/сек (1536 spf)
Метод сжатия : С потерями
Размер потока : 155 Мбайт (10%)
Выравнивание : Разделение по промежуткам
Продолжительность промежутка : 42 мс. (1,00 видеокадр)
Время предзагрузки промежутка : 500 мс.
Скриншоты:
[/url]
[reactorr.org].t72790.torrent
Торрент: Зарегистрирован [ 17-03-2016 21:26 ] · 22E923A694675020F04C4976D0A2F1C0466DF59B

Скачать .torrent

Скачать

15 KB

Статус: проверено
Скачан: 1 раз
Размер: 1,46 GB
terms.php
[Профиль] [ЛС]
Показать сообщения:    
Ответить на тему

Текущее время: 18-Окт 23:15

Часовой пояс: UTC + 3



Вы не можете начинать темы
Вы не можете отвечать на сообщения
Вы не можете редактировать свои сообщения
Вы не можете удалять свои сообщения
Вы не можете голосовать в опросах
Вы не можете прикреплять файлы к сообщениям
Вы можете скачивать файлы