Такой же предатель, как и мы / Our Kind of Traitor (Сюзанна Уайт) [2016, триллер, BDRip 1080p] [Чистый звук]

Ответить на тему
Статистика раздачи
Размер:  8,82 GB   |    Зарегистрирован:  2 года   |    Скачан:  5 раз
Сидов:  13  [  0 KB/s  ]   Личеров:  11  [  0 KB/s  ]   Подробная статистика пиров
 
     
 
 
Автор Сообщение

Crash08 ®

Пол: Мужской

Стаж: 6 лет 11 месяцев

Сообщений: 4780

Создавать темы 04-Сен-2016 19:17

[Цитировать]

Такой же предатель, как и мы / Our Kind of Traitor
«Who can you trust with the truth?»-
Год выпуска: 2016
Страна: Великобритания, Франция
Жанр: триллер
Продолжительность: 01:46:23
Перевод: Профессиональный многоголосый [Чистый звук] - Имеется реклама от спонсора показа!
Субтитры: Нет-Режиссер: Сюзанна Уайт
Сценарий: Хуссейн Амини, Джон ле Карре
Продюсер: Рафаэль Бенолье, Дженни Боргарс, Андреа Колдервуд
Оператор: Энтони Дод Мэнтл
Композитор: Марсело Зарвос
Художник: Сара Гринвуд, Дин Клегг, Джеймс Фостер
Монтаж: Тарик Анвар, Люсия Зуччетти-В ролях: Карлос Акоста / Carlos Acosta (Ballet Dancer), Радивойе Буквич / Radivoje Bukvic (в титрах: Rasha Bukvic) (Misha), Стеллан Скарсгард / Stellan Skarsgård (Dima), Мария Фомина (Anna), Доля Гавански / Dolya Gavanski (Olga), Григорий Добрыгин (The Prince), Велибор Топич / Velibor Topic (Emilio Del Oro), Павел Жайда / Pawel Szajda (в титрах: Pawel Szajda) (Blue Eyed Killer)
---Описание: Молодая английская пара, отдыхая в Марокко, заводит знакомство с русским олигархом, отмывающим деньги для преступных группировок, чьи лидеры вот-вот спишут его со счетов. Чтобы спасти себя и семью, он предлагает разведке Великобритании море ценных сведений в обмен на защиту и покровительство. Его последняя отчаянная надежда — на «английских джентльменов», которые всегда «играют честно»…---Качество: BDRip 1080p
Формат: MKV
Видео кодек: AVC
Аудио кодеk: AC3
Видео: 1920x804 (2.40:1), 24.000 fps, AVC, 11.0 Mbps
Аудио: Аудио #1: AC3, 640 Kbps, 48.0 KHz, 2 ch [Rus]

-Сэмпл-
Рейтинг
-
МедиаИнфо
Код: General
Unique ID                                : 208339168248878662982021178525572390115 (0x9CBCAA0DB98FBF1E97476F8A76F3DCE3)
Complete name                            : Our.Kind.of.Traitor.2016.P.BDRip.1O8Op_KOSHARA.mkv
Format                                   : Matroska
Format version                           : Version 2
File size                                : 8.82 GiB
Duration                                 : 1h 46mn
Overall bit rate mode                    : Constant
Overall bit rate                         : 11.9 Mbps
Encoded date                             : UTC 2016-09-04 12:13:27
Writing application                      : mkvmerge v8.3.0 ('Over the Horizon') 64bit
Writing library                          : libebml v1.3.1 + libmatroska v1.4.2
DURATION                                 : 01:46:23.808000000
NUMBER_OF_FRAMES                         : 199494
NUMBER_OF_BYTES                          : 510704640
_STATISTICS_WRITING_APP                  : mkvmerge v8.3.0 ('Over the Horizon') 64bit
_STATISTICS_WRITING_DATE_UTC             : 2016-09-04 12:13:27
_STATISTICS_TAGS                         : BPS DURATION NUMBER_OF_FRAMES NUMBER_OF_BYTES
Video
ID                                       : 1
Format                                   : AVC
Format/Info                              : Advanced Video Codec
Format profile                           : High@L4.1
Format settings, CABAC                   : Yes
Format settings, ReFrames                : 5 frames
Codec ID                                 : V_MPEG4/ISO/AVC
Duration                                 : 1h 46mn
Bit rate mode                            : Constant
Bit rate                                 : 11.0 Mbps
Nominal bit rate                         : 12.0 Mbps
Width                                    : 1 920 pixels
Height                                   : 804 pixels
Display aspect ratio                     : 2.40:1
Frame rate mode                          : Constant
Frame rate                               : 24.000 fps
Standard                                 : Component
Color space                              : YUV
Chroma subsampling                       : 4:2:0
Bit depth                                : 8 bits
Scan type                                : Progressive
Bits/(Pixel*Frame)                       : 0.297
Stream size                              : 8.16 GiB (93%)
Default                                  : Yes
Forced                                   : No
Color primaries                          : BT.709
Transfer characteristics                 : BT.709
Matrix coefficients                      : BT.709
Audio
ID                                       : 2
Format                                   : AC-3
Format/Info                              : Audio Coding 3
Mode extension                           : CM (complete main)
Format settings, Endianness              : Big
Codec ID                                 : A_AC3
Duration                                 : 1h 46mn
Bit rate mode                            : Constant
Bit rate                                 : 640 Kbps
Channel(s)                               : 2 channels
Channel positions                        : Front: L R
Sampling rate                            : 48.0 KHz
Bit depth                                : 16 bits
Compression mode                         : Lossy
Stream size                              : 487 MiB (5%)
Default                                  : Yes
Forced                                   : No
-
Доп. информация
Сборы в России: $148 631
Зрители: Россия 30.7 тыс.
Премьера (мир): 1 мая 2016
Премьера (РФ): 12 мая 2016
Рейтинг MPAA: Лицам до 17 лет обязательно присутствие взрослого
-
Скриншоты
[reactorr.org].t73718.torrent
 СЕРЕБРЯНАЯ РАЗДАЧА! СКАЧАННОЕ ЗАСЧИТЫВАЕТСЯ ТОЛЬКО НАПОЛОВИНУ! 
Торрент: Зарегистрирован [ 04-09-2016 19:17 ] · AF9AF8AAE7C0279380816260EA950FDB4EFCC405

Скачать .torrent

Скачать

45 KB

Статус: T временная
Скачан: 5 раз
Размер: 8,82 GB
terms.php
[Профиль] [ЛС]
Показать сообщения:    
Ответить на тему

Текущее время: 23-Сен 12:17

Часовой пояс: UTC + 3



Вы не можете начинать темы
Вы не можете отвечать на сообщения
Вы не можете редактировать свои сообщения
Вы не можете удалять свои сообщения
Вы не можете голосовать в опросах
Вы не можете прикреплять файлы к сообщениям
Вы можете скачивать файлы