Поезд в Пусан / Busanhaeng (Ён Сан-хо) [2016, ужасы, боевик, триллер, WEBRip] MVO

Ответить на тему
Статистика раздачи
Размер:  1.45 GB   |    Зарегистрирован:  4 месяца 6 дней   |    Скачан:  2 раза

Полного источника не было: 3 месяца 12 дней

 
     
 
 
 
Автор
Сообщение

Информация о фильме
Название: Поезд в Пусан
Оригинальное название: Busanhaeng
Год выхода: 2016
Жанр: ужасы, боевик, триллер
Режиссер: Ён Сан-хо
В ролях: Кон Ю, Ма Дон-сок, Чон Ю-ми, Ким Су-ан, Ким И-сон, Чхве У-щик, Ан Со-хи, Ким Чхан-хван, Чан Хёк-чин, Чон Сок-ён
О фильме: Южную Корею охватывает вспышка зомби-вируса. Отец с маленькой дочерью, проводник с беременной женой и многие другие пытаются добраться до города Пусан. Именно там, как говорят, самое безопасное место в стране, где можно найти защиту от заболевания. Люди садятся на скоростной поезд до Пусана. А поскольку в нём же оказываются заражённые, начинается отчаянная борьба за выживание…

Выпущено: Корея Южная
Продолжительность: 01:58:00
Озвучивание: Любительское (многоголосное) [Колобок & XDUB DORAMA]
Роли озвучивали: den904, DeadSno & Izanami
Перевод: Сергея Скворцова
Примечание: Релиз без рекламы.
Файл
Формат: AVI | XviD
Качество: WEBRip
Видео: 1558 kb/s, 720x384, 29.970 fps
Аудио: AC3, 192 kb/s (2 ch)
Субтитры: отсутствуют

MI

Общее
Полное имя : D:загрузкиBusanhaeng.2O16.MVO.WEBRip.avi
Формат : AVI
Формат/Информация : Audio Video Interleave
Размер файла : 1,45 Гбайт
Продолжительность : 1 ч. 58 м.
Общий поток : 1762 Кбит/сек
Программа кодирования : VirtualDubMod 1.5.10.3 | www.virtualdub-fr.org || (build 2550/release)
Библиотека кодирования : VirtualDubMod build 2550/release
Видео
Идентификатор : 0
Формат : MPEG-4 Visual
Профиль формата : Advanced Simple@L5
Параметр BVOP формата : 1
Параметр QPel формата : Нет
Параметр GMC формата : Без точки перехода
Параметр матрицы формата : Default (MPEG)
Идентификатор кодека : XVID
Идентификатор кодека/Подсказка : XviD
Продолжительность : 1 ч. 58 м.
Битрейт : 1558 Кбит/сек
Ширина : 720 пикселей
Высота : 384 пикселя
Соотношение сторон : 1,85:1
Частота кадров : 29,970 кадров/сек
Цветовое пространство : YUV
Субдискретизация насыщенности : 4:2:0
Битовая глубина : 8 бит
Тип развёртки : Прогрессивная
Метод сжатия : С потерями
Бит/(Пиксели*Кадры) : 0.188
Размер потока : 1,28 Гбайт (88%)
Библиотека кодирования : XviD 73
Аудио
Идентификатор : 1
Формат : AC-3
Формат/Информация : Audio Coding 3
Расширение режима : CM (complete main)
Параметр Endianness формата : Big
Идентификатор кодека : 2000
Продолжительность : 1 ч. 58 м.
Вид битрейта : Постоянный
Битрейт : 192 Кбит/сек
Каналы : 2 канала
Расположение каналов : Front: L R
Частота : 48,0 КГц
Битовая глубина : 16 бит
Метод сжатия : С потерями
Размер потока : 162 Мбайт (11%)
Выравнивание : Разделение по промежуткам
Продолжительность промежутка : 33 мс. (1,00 видеокадр)
Время предзагрузки промежутка : 500 мс.
 
Показать сообщения:    
Ответить на тему