Воздушная перевозка / Airlift (Раджа Менон) [2016, боевик, история,DVDRip] [ICG]

Ответить на тему
Статистика раздачи
Размер:  1,42 GB   |    Зарегистрирован:  1 год 1 месяц   |    Скачан:  0 раз
Сидов:  1  [  0 KB/s  ]   Личеров:  4  [  0 KB/s  ]   Подробная статистика пиров
 
     
 
 
Автор Сообщение

Crash08 ®

Пол: Мужской

Стаж: 6 лет 2 месяца

Сообщений: 4789

Создавать темы 12-Ноя-2016 19:49

[Цитировать]

Воздушная перевозка / Airlift-Год выпуска: 2016
Страна: Индия
Жанр: боевик, история
Продолжительность: 01:59:06
Перевод: Любительский (многоголосый) [ICG] Без рекламы!
Субтитры:Отсутствуют!-В ролях: Акшай Кумар, Нимрат Каур, Таранджит Каур, Самир Али Кхан, Пураб Кохли
Режиссёр: Раджа Менон-Описание: Ранджит Катиял по национальности - индус, но долгое время живет в Кувейте и уже не считает себя таковым. Он влиятельный человек в Кувейте. Но все меняется 2 августа 1990 года, когда Ирак вторгается в Кувейт. 170 тысяч индусов оказываются на вражеской территории. И тогда Ранджиту приходится выбирать между спасением своей семьи, работниками его компании и тем, кто он сам. Но когда численность индийцев переступает уже за сотню тысяч, выбор становится очевидным. И вместе со своей семьей Ранджит делает все возможное, чтобы правительство Индии спасло их.-Качество: DVDRip
Формат: AVI
Видео кодек: XviD
Аудио кодек: AC3
Видео: 720x304, 25,000 fps, 1252 Kbps
Аудио: 448 Kbps, 6 ch, 48,0 KHz-
Скриншоты
-
MediaInfo
Общее
Полное имя : C:\Users\xXx\Desktop\МОИ РАЗДАЧИ\video 4\Airlift.(2016).avi
Формат : AVI
Формат/Информация : Audio Video Interleave
Профиль формата : OpenDML
Размер файла : 1,42 Гбайт
Продолжительность : 1 ч. 59 м.
Общий поток : 1713 Кбит/сек
Программа кодирования : Lavf56.36.100
Видео
Идентификатор : 0
Формат : xvid
Идентификатор кодека : xvid
Продолжительность : 1 ч. 59 м.
Битрейт : 1252 Кбит/сек
Ширина : 720 пикселей
Высота : 304 пикселя
Соотношение сторон : 2,35:1
Частота кадров : 25,000 кадров/сек
Тип развёртки : Прогрессивная
Бит/(Пиксели*Кадры) : 0.229
Размер потока : 1,04 Гбайт (73%)
Аудио
Идентификатор : 1
Формат : AC-3
Формат/Информация : Audio Coding 3
Идентификатор кодека : 00001000-0000-0020-8000-00AA00389B71
Продолжительность : 1 ч. 59 м.
Битрейт : 448 Кбит/сек
Каналы : 6 каналов
Расположение каналов : Front: L C R, Side: L R, LFE
Частота : 48,0 КГц
Битовая глубина : 16 бит
Метод сжатия : С потерями
Размер потока : 382 Мбайт (26%)
Продолжительность промежутка : 32 мс. (0,80 видеокадр)
[reactorr.org].t74049.torrent
Торрент: Зарегистрирован [ 12-11-2016 19:49 ] · ACD8386A165DC1AACE51C8DA165F592C2C0D639D

Скачать .torrent

Скачать

15 KB

Статус: проверено
Скачан: 0 раз
Размер: 1,42 GB
terms.php
[Профиль] [ЛС]
Показать сообщения:    
Ответить на тему

Текущее время: 15-Дек 20:53

Часовой пояс: UTC + 3



Вы не можете начинать темы
Вы не можете отвечать на сообщения
Вы не можете редактировать свои сообщения
Вы не можете удалять свои сообщения
Вы не можете голосовать в опросах
Вы не можете прикреплять файлы к сообщениям
Вы можете скачивать файлы