Реальные воспоминания международного убийцы / True Memoirs of an International Assassin (Джефф Уодлоу) [2016, боевик, комедия, WEBRip 1080p] [Синема УС]

Ответить на тему
Статистика раздачи
Размер:  4,03 GB   |    Зарегистрирован:  1 год 10 месяцев   |    Скачан:  10 раз
Сидов:  24  [  0 KB/s  ]   Личеров:  9  [  0 KB/s  ]   Подробная статистика пиров
 
     
 
 
Автор Сообщение

Crash08 ®

Пол: Мужской

Стаж: 6 лет 11 месяцев

Сообщений: 4780

Создавать темы 13-Ноя-2016 19:08

[Цитировать]

Реальные воспоминания международного убийцы / True Memoirs of an International Assassin
«The man. The myth. The memoirs»-
Год выпуска: 2016
Страна: США
Жанр: боевик, комедия
Продолжительность: 01:38:23
Перевод: Любительский многоголосый [Синема УС]
Субтитры: Нет-Режиссер: Джефф Уодлоу
Сценарий: Джефф Моррис
Продюсер: Джастин Бегно, Раджа Коллинз, Марк Фазано
Оператор: Питер Лайонс Коллистер
Композитор: Людвиг Горанссон
Художник: Тоби Корбетт, Natalia Veloz Chapuseaux, Томас Минтон
Монтаж: Шон Альбертсон-В ролях: Кевин Джеймс / Kevin James (Same Larson / Mason Carver), Ким Коутс / Kim Coates (President Miguel «Mike» Cueto), Морис Комт / Maurice Compte (Juan), Сулай Энао / Zulay Henao (Rosa Bolivar), Эндрю Ховард / Andrew Howard (Anton Masovich), Рон Рифкин / Ron Rifkin (Amos), Юл Васкес / Yul Vazquez (General Javier Ruiz), П.Дж. Бирн / P.J. Byrne (Trent), Келен Коулмэн / Kelen Coleman (Kylie Applebaum), Леонард Эрл Хауз / Leonard Earl Howze (Michael Cleveland), Роб Риггл / Rob Riggle (William Cobb), Энди Гарсиа / Andy Garcia (El Toro)
---Описание: Экшн-комедия о робком бухгалтере и писателе-дебютанте Джо, чей роман «Воспоминания международного убийцы» выпускают под видом правдивых исповедальных мемуаров. Новый бестселлер привлекает внимание ЦРУ, гангстеров и журналистов, вынуждая кроткого писателя почувствовать себя в шкуре своего персонажа.
---Качество: WEBRip 1080p
Формат: MKV
Видео кодек: AVC
Аудио кодеk: AC3
Видео: 1920x800 (2.40:1), 23.976 fps, AVC, 5 363 Kbps
Аудио: Аудио #1: AC3, 384 Kbps, 48.0 KHz, 2 ch [Rus]

-Сэмпл-
Рейтинг
-
МедиаИнфо
Код: General
Unique ID                                : 222360034918305481070447134030764026094 (0xA748FC26E3DC8D09BFA790807FA5A8EE)
Complete name                            : Internacionalniy.UbiyTsa.2016.P.WEB-DL.1O8Op_KOSHARA.mkv
Format                                   : Matroska
Format version                           : Version 2
File size                                : 4.03 GiB
Duration                                 : 1h 38mn
Overall bit rate mode                    : Variable
Overall bit rate                         : 5 863 Kbps
Encoded date                             : UTC 2016-11-13 12:28:09
Writing application                      : mkvmerge v8.3.0 ('Over the Horizon') 64bit
Writing library                          : libebml v1.3.1 + libmatroska v1.4.2
DURATION                                 : 01:38:23.272000000
NUMBER_OF_FRAMES                         : 141537
NUMBER_OF_BYTES                          : 4041875218
_STATISTICS_WRITING_APP                  : mkvmerge v8.3.0 ('Over the Horizon') 64bit
_STATISTICS_WRITING_DATE_UTC             : 2016-11-13 12:28:09
_STATISTICS_TAGS                         : BPS DURATION NUMBER_OF_FRAMES NUMBER_OF_BYTES
Video
ID                                       : 1
Format                                   : AVC
Format/Info                              : Advanced Video Codec
Format profile                           : High@L4.1
Format settings, CABAC                   : Yes
Format settings, ReFrames                : 5 frames
Codec ID                                 : V_MPEG4/ISO/AVC
Duration                                 : 1h 38mn
Bit rate mode                            : Variable
Bit rate                                 : 5 363 Kbps
Maximum bit rate                         : 5 900 Kbps
Width                                    : 1 920 pixels
Height                                   : 800 pixels
Display aspect ratio                     : 2.40:1
Frame rate mode                          : Constant
Frame rate                               : 23.976 fps
Standard                                 : Component
Color space                              : YUV
Chroma subsampling                       : 4:2:0
Bit depth                                : 8 bits
Scan type                                : Progressive
Bits/(Pixel*Frame)                       : 0.146
Stream size                              : 3.69 GiB (91%)
Language                                 : English
Default                                  : Yes
Forced                                   : No
Color primaries                          : BT.709
Transfer characteristics                 : BT.709
Matrix coefficients                      : BT.709
Audio
ID                                       : 2
Format                                   : AC-3
Format/Info                              : Audio Coding 3
Mode extension                           : CM (complete main)
Format settings, Endianness              : Big
Codec ID                                 : A_AC3
Duration                                 : 1h 38mn
Bit rate mode                            : Constant
Bit rate                                 : 384 Kbps
Channel(s)                               : 2 channels
Channel positions                        : Front: L R
Sampling rate                            : 48.0 KHz
Bit depth                                : 16 bits
Compression mode                         : Lossy
Stream size                              : 270 MiB (7%)
Language                                 : Russian
Default                                  : Yes
Forced                                   : No
-
Доп. информация
Бюджет: $40 000 000
Премьера (мир): 11 ноября 2016
-
Скриншоты
[reactorr.org].t74051.torrent
 СЕРЕБРЯНАЯ РАЗДАЧА! СКАЧАННОЕ ЗАСЧИТЫВАЕТСЯ ТОЛЬКО НАПОЛОВИНУ! 
Торрент: Зарегистрирован [ 13-11-2016 19:08 ] · 405750D240881121B1DF497CA5BC55C2B3921038

Скачать .torrent

Скачать

21 KB

Статус: проверено
Скачан: 10 раз
Размер: 4,03 GB
terms.php
[Профиль] [ЛС]
Показать сообщения:    
Ответить на тему

Текущее время: 23-Сен 12:18

Часовой пояс: UTC + 3



Вы не можете начинать темы
Вы не можете отвечать на сообщения
Вы не можете редактировать свои сообщения
Вы не можете удалять свои сообщения
Вы не можете голосовать в опросах
Вы не можете прикреплять файлы к сообщениям
Вы можете скачивать файлы