Ледокол (Николай Хомерики) [2016, драма, WEB-DLRip-AVC] iTunes

Ответить на тему
Статистика раздачи
Размер:  1,45 GB   |    Зарегистрирован:  1 год   |    Скачан:  5 раз

Полного источника не было: 9 месяцев 15 дней

 
     
 
 
Автор Сообщение

Crash08 ®

Пол: Мужской

Стаж: 6 лет 2 месяца

Сообщений: 4789

Создавать темы 22-Ноя-2016 13:27

[Цитировать]

Информация о фильме
Название: Ледокол
Год выхода: 2016
Жанр: драма
Режиссер: Николай Хомерики
В ролях: Пётр Фёдоров, Сергей Пускепалис, Анна Михалкова, Ольга Филимонова, Александр Яценко, Александр Паль, Виталий Хаев, Алексей Барабаш, Дмитрий Муляр, Артур Чиргадзе
О фильме:
Основано на реальных событиях. 1985 год. Навстречу ледоколу «Михаил Громов» движется огромный айсберг. Уходя от столкновения с ним, судно попадает в ледовый плен и оказывается в вынужденном дрейфе вблизи побережья Антарктиды. Вокруг зловещая тишина и жуткий холод. Горючее на исходе… Нервы на пределе… И даже если можно было бы уйти – деваться все равно некуда. У командования ледокола нет права на ошибку. Одно неверное решение – и тяжелые льды раздавят судно…

Страна: Россия
Студия: Профит
Продолжительность: 02:03:53
Перевод: Оригинальный - iTunes Russia
Файл
Формат: Matroska
Качество: WEB-DLRip-AVC
Видео: 984x412 at 24.000 fps, High@L4.1, ~1292 kbps
Aудио: 48 kHz, AC3, 3/2 (L,C,R,l,r) + LFE ch, ~384.00 kbps avg
Субтитры: None
M/I
General
Unique ID : 36990441380478405748118303373322529112 (0x1BD41991269EFD84DDB950D017EEA958)
Complete name : F:Ледокол.(2016).WEB-DLRIP-AVC.[-=DoMiNo=-].mkv
Format : Matroska
Format version : Version 4 / Version 2
File size : 1.45 GiB
Duration : 2 h 3 min
Overall bit rate : 1 678 kb/s
Movie name : Ледокол
Deion : Основано на реальных событиях. 1985 год. Навстречу ледоколу «Михаил Громов» движется огромный айсберг. Уходя от столкновения с ним, судно попадает в ледовый плен и оказывается в вынужденном дрейфе вблизи побережья Антарктиды. Вокруг зловещая тишина и жуткий холод. Горючее на исходе… Нервы на пределе… И даже если можно было бы уйти — деваться все равно некуда. У командования ледокола нет права на ошибку. Одно неверное решение — и тяжелые льды раздавят судно…
Writing application : XviD4PSP 7.0.322 DAILY
Writing library : Lavf57.41.100 / Lavf57.41.100
Attachments : poster.jpg
ACTORS : Пётр Фёдоров, Сергей Пускепалис, Анна Михалкова, Ольга Филимонова, Александр Яценко, Александр Паль, Виталий Хаев, Алексей Барабаш, Дмитрий Муляр, Артур Чиргадзе, Александра Серебрякова, Артур Ваха, Алексей Шуплецов, Вячеслав Пасюков, Алексей Ручков, Георгий Завьялов, Александр Зайцев, Борис Каморзин, Денис Кудряшов, Руслан Курик
COMPOSER : Туомас Кантелинен
COUNTRY : Россия
DATE : 2016
DIRECTOR : Николай Хомерики
ENCODING_INFO : MATROSKA,WEBM > MKV / H264 > X264 VBR-2P 1292kbps Произвольный / AC3 > COPY
GENRE : драма
HD_VIDEO : 1
ITUNEXTC : ru-movie|12+|200|
MEDIA_TYPE : 9
PRODUCER : Игорь Толстунов, Сергей Козлов, Александр Козлов, Василий Соловьев, Анна Кагарлицкая
RATING : 7.042
WRITER : Алексей Онищенко, Андрей Золотарев
Video
ID : 1
Format : AVC
Format/Info : Advanced Video Codec
Format profile : High@L4.1
Format settings, CABAC : Yes
Format settings, ReFrames : 12 frames
Codec ID : V_MPEG4/ISO/AVC
Duration : 2 h 3 min
Bit rate : 1 292 kb/s
Width : 984 pixels
Height : 412 pixels
Display aspect ratio : 2.40:1
Frame rate mode : Constant
Frame rate : 24.000 FPS
Color space : YUV
Chroma subsampling : 4:2:0
Bit depth : 8 bits
Scan type : Progressive
Bits/(Pixel*Frame) : 0.133
Stream size : 1.09 GiB (75%)
Title : RIP_by_-=DoMiNo=-
Writing library : x264 core 148 r2721M 72d53ab
Encoding settings : cabac=1 / ref=12 / deblock=1:-3:-3 / analyse=0x3:0x133 / me=umh / subme=11 / psy=1 / psy_rd=1.00:0.10 / mixed_ref=1 / me_range=32 / chroma_me=1 / trellis=2 / 8x8dct=1 / cqm=0 / deadzone=21,11 / fast_pskip=0 / chroma_qp_offset=-3 / threads=5 / lookahead_threads=1 / sliced_threads=0 / nr=0 / decimate=1 / interlaced=0 / bluray_compat=0 / constrained_intra=0 / bframes=11 / b_pyramid=2 / b_adapt=2 / b_bias=0 / direct=3 / weightb=1 / open_gop=0 / weightp=2 / keyint=240 / keyint_min=24 / scenecut=40 / intra_refresh=0 / rc_lookahead=60 / rc=2pass / mbtree=1 / bitrate=1292 / ratetol=1.0 / qcomp=0.70 / qpmin=0 / qpmax=69 / qpstep=4 / cplxblur=20.0 / qblur=0.5 / ip_ratio=1.40 / aq=1:1.00
Language : Russian
Default : Yes
Forced : No
Color range : Limited
Color primaries : BT.709
Transfer characteristics : BT.709
Matrix coefficients : BT.709
DURATION : 02:03:53.833000000
Audio
ID : 2
Format : AC-3
Format/Info : Audio Coding 3
Mode extension : CM (complete main)
Format settings, Endianness : Big
Codec ID : A_AC3
Duration : 2 h 3 min
Bit rate mode : Constant
Bit rate : 384 kb/s
Channel(s) : 6 channels
Channel positions : Front: L C R, Side: L R, LFE
Sampling rate : 48.0 kHz
Frame rate : 31.250 FPS (1536 spf)
Bit depth : 16 bits
Compression mode : Lossy
Stream size : 340 MiB (23%)
Title : AC3 5.1 @ 384 kbps
Language : Russian
Default : Yes
Forced : No
DURATION : 02:03:53.888000000
Menu
00:00:00.000 : :1
00:06:27.958 : :2
00:12:44.083 : :3
00:19:01.791 : :4
00:25:05.957 : :5
00:30:53.832 : :6
00:36:47.373 : :7
00:43:08.331 : :8
00:48:55.122 : :9
00:57:04.288 : :10
01:03:47.954 : :11
01:09:57.203 : :12
01:16:17.120 : :13
01:22:14.828 : :14
01:27:31.078 : :15
01:34:19.536 : :16
01:41:46.786 : :17
01:49:49.286 : :18
01:56:45.286 : :19
[reactorr.org].t74062.torrent
Торрент: Зарегистрирован [ 22-11-2016 13:27 ] · A2A9650412AC0C810F8CC1AF0692BD062BDF399E

Скачать .torrent

Скачать

15 KB

Статус: проверено
Скачан: 5 раз
Размер: 1,45 GB
terms.php
[Профиль] [ЛС]
Показать сообщения:    
Ответить на тему

Текущее время: 16-Дек 06:19

Часовой пояс: UTC + 3



Вы не можете начинать темы
Вы не можете отвечать на сообщения
Вы не можете редактировать свои сообщения
Вы не можете удалять свои сообщения
Вы не можете голосовать в опросах
Вы не можете прикреплять файлы к сообщениям
Вы можете скачивать файлы