Медвежий поцелуй (Сергей Бодров) [2002, фэнтези, драма, мелодрама, DVDRip]

Ответить на тему
Статистика раздачи
Размер:  751 MB   |    Зарегистрирован:  4 года 8 месяцев   |    Скачан:  0 раз
Сидов:  5  [  0 KB/s  ]   Подробная статистика пиров
 
     
 
 
Автор Сообщение

Crash08 ®

Пол: Мужской

Стаж: 5 лет 10 месяцев

Сообщений: 4789

Создавать темы 13-Дек-2012 21:47

[Цитировать]

Медвежий поцелуй
Жанр: фэнтези, драма, мелодрама
Год выпуска: 2002
Продолжительность: 01:34:12
Режиссёр: Сергей Бодров
В ролях:
Ребека Лильеберг
Йоахим Круль
Сергей Бодров мл.
Кит Аллен
Маурицио Донадони
Анн-Мари Пизани
Марсела Муссо
Ариадна Хиль
Сильвио Орландо
Юрий Александров
Описание:
Маленького медвежонка, родившегося в сибирской тайге, охотники сдали в питерский зоопарк. Международной цирковой труппе, выступавшей в Санкт-Петербурге, понадобились дикие звери, и воздушная гимнастка Кармен вместе с мужем и дочкой Лолой пришла в зоопарк. Кармен никого там не выбрала, а Лола увидела одинокого медвежонка и влюбилась в него.
Кармен вскоре, устав от тягот кочевой жизни, сбежала из труппы, на прощание рассказав Лоле, что хоть и любит девочку как дочь, но матерью ей не является. Лола осталась с циркачами, а вместе с ней — и медвежонок, получивший русское имя Миша. Он переезжал в цирковом фургоне из страны в страну (Россия, Швеция, Германия, Испания…) и становился все крупнее и крепче. А однажды Лола проснулась и увидела в клетке не медведя, а молодого парня, который признался, что он и есть тот самый Миша…
Доп. информация:

Качество видео: DVDRip, исходник - DVD5
Формат видео: AVI
Видео: 640x352 (1.82:1), 25 fps, XviD build 65 ~977 kbps avg, 0.17 bit/pixel
Аудио: 48 kHz, MPEG Layer 3, 2 ch, ~128.00 kbps avg
Семпл
MediaInfo
Общее
Полное имя : C:\Films\Медвежий поцелуй_745\Медвежий поцелуй_745.avi
Формат : AVI
Формат/Информация : Audio Video Interleave
Размер файла : 751 Мбайт
Продолжительность : 1 ч. 34 м.
Общий поток : 1115 Кбит/сек
Программа кодирования : VirtualDubModRus 1.5.10.2 (build 2540/release)
Библиотека кодирования : VirtualDubMod build 2540/release
Видео
Идентификатор : 0
Формат : MPEG-4 Visual
Профиль формата : Advanced Simple@L5
Параметр BVOP формата : 1
Параметр QPel формата : Нет
Параметр GMC формата : Без точки перехода
Параметр матрицы формата : Выборочная
Идентификатор кодека : XVID
Идентификатор кодека/Подсказка : XviD
Продолжительность : 1 ч. 34 м.
Битрейт : 977 Кбит/сек
Ширина : 640 пикселей
Высота : 352 пикселя
Соотношение сторон : 16:9
Частота кадров : 25,000 кадров/сек
Цветовое пространство : YUV
Субдискретизация насыщенности : 4:2:0
Битовая глубина : 8 бит
Тип развёртки : Прогрессивная
Метод сжатия : С потерями
Бит/(Пиксели*Кадры) : 0.174
Размер потока : 659 Мбайт (88%)
Библиотека кодирования : XviD 65
Аудио
Идентификатор : 1
Формат : MPEG Audio
Версия формата : Version 1
Профиль формата : Layer 3
Режим : Joint stereo
Расширение режима : MS Stereo
Идентификатор кодека : 55
Идентификатор кодека/Подсказка : MP3
Продолжительность : 1 ч. 34 м.
Вид битрейта : Постоянный
Битрейт : 128 Кбит/сек
Каналы : 2 канала
Частота : 48,0 КГц
Метод сжатия : С потерями
Размер потока : 86,3 Мбайт (11%)
Выравнивание : Разделение по промежуткам
Продолжительность промежутка : 40 мс. (1,00 видеокадр)
Время предзагрузки промежутка : 500 мс.
Скриншоты
[reactorr.org].t16527.torrent
Торрент: Зарегистрирован [ 13-12-2012 21:44 ] · 3FF5BB25DBC839DF00D87A87AA521C6E5496EFA1

Скачать .torrent

Скачать

15 KB

Статус: проверено
Скачан: 0 раз
Размер: 751 MB
terms.php
[Профиль] [ЛС]
Показать сообщения:    
Ответить на тему

Текущее время: 21-Авг 16:42

Часовой пояс: UTC + 3



Вы не можете начинать темы
Вы не можете отвечать на сообщения
Вы не можете редактировать свои сообщения
Вы не можете удалять свои сообщения
Вы не можете голосовать в опросах
Вы не можете прикреплять файлы к сообщениям
Вы можете скачивать файлы