В августе 44-го (Михаил Пташук) [2001 г., Боевик, драма, детектив, военный, DVDRip]

Ответить на тему
Статистика раздачи
Размер:  701 MB   |    Зарегистрирован:  4 года 5 месяцев   |    Скачан:  0 раз
Сидов:  2  [  0 KB/s  ]   Личеров:  1  [  0 KB/s  ]   Подробная статистика пиров
 
     
 
 
Автор Сообщение

Diman ®

Пол: Мужской

Стаж: 4 года 8 месяцев

Сообщений: 76

Создавать темы 06-Янв-2013 01:00

[Цитировать]

В августе 44-го- Год выпуска: 2001
Страна: Россия, Беларусь
Жанр: Боевик, драма, детектив, военный
Продолжительность: 01:43:46
Перевод: Не требуется
Режиссер: Михаил Пташук-В ролях: Владислав Галкин, Евгений Миронов, Беата Тышкевич, Александр Феклистов, Ярослав Бойко, Юрий Колокольников, Алексей Петренко,
Рамаз Чхиквадзе, Виктор Павлов, Альберт Филозов, Радослав Пазура, Алексей Макаров, Юрий Цурило, Александр Ефимов, Каролина Грушка,
Алексей Панин, Александр Балуев, Александр Овчинников и др.-Описание: О работе контрразведки СМЕРШ в годы войны на только что освобожденной от фашистов территории. События происходят в августе 1944 года.
На территории уже освобожденной Белоруссии действуют агенты противника. Регулярно с территории республики в эфир выходит шпионская группа,
передающая шифрованные радиограммы, которая остается неуловимой. Так возникает дело военной контрразведки "Неман", главную роль
в которой предстоит сыграть капитану Алехину и его оперативной группе...-[kp]http://www.kinopoisk.ru/film/41381/[/kp]-Качество: DVDRip
Формат: AVI
Видео кодек: XviD
Аудио кодек: AC3
Видео: 704x368(1,913), 25.000 кадров/сек, XVID MPEG-4 ~746 кб/с, 0.115 Бит/Пиксели
Аудио: 48 КГц, 16 бит, AC-3, 2 канала(Front: L R), ~192 кб/с
MediaInfo
Общее
Полное имя : В августе 44-го.avi
Формат : AVI
Формат/Информация : Audio Video Interleave
Размер файла : 701 Мбайт
Продолжительность : 1 ч. 43 м.
Общий поток : 945 Кбит/сек
Программа кодирования : VirtualDubMod 1.5.4.1 (build 2178/release)
Библиотека кодирования : VirtualDubMod build 2178/release
Видео
Идентификатор : 0
Формат : MPEG-4 Visual
Профиль формата : Advanced Simple@L5
Параметр BVOP формата : 1
Параметр QPel формата : Нет
Параметр GMC формата : Без точки перехода
Параметр матрицы формата : Выборочная
Идентификатор кодека : XVID
Идентификатор кодека/Подсказка : XviD
Продолжительность : 1 ч. 43 м.
Битрейт : 746 Кбит/сек
Ширина : 704 пикселя
Высота : 368 пикселей
Соотношение сторон : 1,913
Частота кадров : 25,000 кадров/сек
Цветовое пространство : YUV
Субдискретизация насыщенности : 4:2:0
Битовая глубина : 8 бит
Тип развёртки : Прогрессивная
Метод сжатия : С потерями
Бит/(Пиксели*Кадры) : 0.115
Размер потока : 554 Мбайт (79%)
Библиотека кодирования : XviD 63
Аудио
Идентификатор : 1
Формат : AC-3
Формат/Информация : Audio Coding 3
Расширение режима : CM (complete main)
Параметр Endianness формата : Big
Идентификатор кодека : 2000
Продолжительность : 1 ч. 43 м.
Вид битрейта : Постоянный
Битрейт : 192 Кбит/сек
Каналы : 2 канала
Расположение каналов : Front: L R
Частота : 48,0 КГц
Битовая глубина : 16 бит
Метод сжатия : С потерями
Размер потока : 143 Мбайт (20%)
Выравнивание : Разделение по промежуткам
Продолжительность промежутка : 96 мс. (2,40 видеокадра)
Время предзагрузки промежутка : 96 мс.
Язык : Russian
Награды:
* 2000г. - Приз "Серебро "Лiстапада" на МКФ "Лiстапад" в Минске (Михаил Пташук)
* 2000г. - Специальный диплом жюри кинематографистов на МКФ "Лiстапад" в Минске за операторскую работу (Владимир Спорышков).
* 2000г. - Специальный диплом кинопрессы "за вторую роль, ставшую первой" на МКФ "Лiстапад" в Минске (Владислав Галкин).
* 2001г. - Специальный приз Ученого совета Литературного института им. М. Горькова и холдинга "Терра" на РКФ "Литература и кино" в
Гатчине (Евгений Миронов).
* 2001г. - Премия "Ника" в номинации "Открытие года" (Владислав Галкин).
* 2001г. - Премия "Ника" за лучшую работу звукорежиссера (Игорь Майоров).
* 2001г. - Гран-при на МКФ славянских и православных народов "Золотой Витязь" (Михаил Пташук).
* 2001г. - Приз "за воплощение темы любви к Родине" на ОРКФ "Кинотавр" в Сочи (Михаил Пташук).
* 2005г. - Приз "От поколения к поколению" за лучший военный фильм на КФ "Московская премьера" (Михаил Пташук).
Знаете ли Вы, что...
В ноябре 2008 начальник управления регистрации и архивных фондов ФСБ России генерал-лейтенант Василий Христофоров заявил,
что ФСБ России считает этот фильм наиболее достоверной в РФ экранизацией жизни и деятельности российского (советского) контрразведчика,
в котором очень близко к реальности показаны жизнь, быт и работа контрразведчиков «Смерш».
Скриншоты




[reactorr.org].t17497.torrent
Торрент: Зарегистрирован [ 06-01-2013 01:00 ] · 85CF71B1CBBA4B78B1A1CBF2EEA4E1ECE45E431B

Скачать .torrent

Скачать

14 KB

Статус: проверено
Скачан: 0 раз
Размер: 701 MB
terms.php
[Профиль] [ЛС]
Показать сообщения:    
Ответить на тему

Текущее время: 26-Июн 20:23

Часовой пояс: UTC + 3



Вы не можете начинать темы
Вы не можете отвечать на сообщения
Вы не можете редактировать свои сообщения
Вы не можете удалять свои сообщения
Вы не можете голосовать в опросах
Вы не можете прикреплять файлы к сообщениям
Вы можете скачивать файлы