1612: Хроники Смутного времени (Владимир Хотиненко) [2007, драма, приключения, история, BDRip]

Ответить на тему
Статистика раздачи
Размер:  2,17 GB   |    Зарегистрирован:  4 года 2 месяца   |    Скачан:  0 раз
Сидов:  10  [  0 KB/s  ]   Личеров:  1  [  0 KB/s  ]   Подробная статистика пиров
 
     
 
 
Автор Сообщение

Crash08 ®

Пол: Мужской

Стаж: 5 лет 5 месяцев

Сообщений: 4789

Создавать темы 08-Янв-2013 20:25

[Цитировать]

1612: Хроники Смутного времени
Жанр: драма, приключения, история
Год выпуска: 2007
Продолжительность: 02:23:25
Режиссёр: Владимир Хотиненко
В ролях:
Михаил Пореченков
Андрей Федорцов
Александр Балуев
Марат Башаров
Петр Кислов
Виолетта Давыдовская
Рамон Ланга
Дмитрий Мухамадеев
Александр Самойленко
Виктор Шамиров
Описание:
После смерти царя Бориса Годунова убиты его вдова и юный наследник Федор. На престол восходит самозванец Лжедмитрий. Но год спустя убит и он, власть переходит из рук в руки. В России наступает Смута…
Единственный свидетель убийства царской семьи — мальчишка-слуга Андрей. В его памяти отпечаталась сцена расправы над законными правителями, но главное — он не может забыть дочь Бориса Годунова, красавицу Ксению. Жива ли царевна? Где она теперь?..
Годы спустя невероятные обстоятельства сводят повзрослевшего Андрея с испанским дворянином Альваром Борха, который вскоре гибнет в схватке с разбойниками. Присвоив его одежду и имя, Андрей превращается в другого человека. Теперь он — «гишпанский кабальер», «воин без страха и упрека», охотник за удачей. И главное — он может воплотить свою мечту: спасти Ксению Годунову и завоевать ее сердце.
Доп. информация:

На иностранную речь - вшитые русские субтитры - уже было в исходнике, как, впрочем, и на DVD9 от CP Digital. Кроме того, в исходнике очень сильно плавает наполнение кадра, даже на протяжении одной сцены, поэтому полный кроп сделать нереально.
Качество видео: BDRip, исходник - Blu-ray disc 1080i
Формат видео: AVI
Видео: 704x288 (2.44:1), 25 fps, XviD build 65 ~1778 kbps avg, 0.35 bit/pixel
Аудио: 48 kHz, AC3 Dolby Digital, 3/2 (L,C,R,l,r) + LFE ch, ~384 kbps
Семпл
Сравнения для информации!!!
Разное наполнение кадра:
Сравнение с DVDRip-ом от alexandr_kozlov - здесь
Сравнение с DVDRip-ом от dragomire - здесь
MediaInfo
Общее
Полное имя : D:\Torrent\1612 - Хроники Смутного времени\1612 - Хроники Смутного времени_2.18\1612 - Хроники Смутного времени_2.18.avi
Формат : AVI
Формат/Информация : Audio Video Interleave
Профиль формата : OpenDML
Размер файла : 2,17 Гбайт
Продолжительность : 2 ч. 23 м.
Общий поток : 2169 Кбит/сек
Программа кодирования : VirtualDubModRus 1.5.10.2 (build 2540/release)
Библиотека кодирования : VirtualDubMod build 2540/release
Видео
Идентификатор : 0
Формат : MPEG-4 Visual
Профиль формата : Advanced Simple@L5
Параметр BVOP формата : 1
Параметр QPel формата : Нет
Параметр GMC формата : Без точки перехода
Параметр матрицы формата : Выборочная
Идентификатор кодека : XVID
Идентификатор кодека/Подсказка : XviD
Продолжительность : 2 ч. 23 м.
Битрейт : 1773 Кбит/сек
Ширина : 704 пикселя
Высота : 288 пикселей
Соотношение сторон : 2,40:1
Частота кадров : 25,000 кадров/сек
Цветовое пространство : YUV
Субдискретизация насыщенности : 4:2:0
Битовая глубина : 8 бит
Тип развёртки : Прогрессивная
Метод сжатия : С потерями
Бит/(Пиксели*Кадры) : 0.350
Размер потока : 1,78 Гбайт (82%)
Библиотека кодирования : XviD 65
Аудио
Идентификатор : 1
Формат : AC-3
Формат/Информация : Audio Coding 3
Расширение режима : CM (complete main)
Параметр Endianness формата : Big
Идентификатор кодека : 2000
Продолжительность : 2 ч. 23 м.
Вид битрейта : Постоянный
Битрейт : 384 Кбит/сек
Каналы : 6 каналов
Расположение каналов : Front: L C R, Side: L R, LFE
Частота : 48,0 КГц
Битовая глубина : 16 бит
Метод сжатия : С потерями
Размер потока : 394 Мбайт (18%)
Выравнивание : Разделение по промежуткам
Продолжительность промежутка : 40 мс. (1,00 видеокадр)
Время предзагрузки промежутка : 500 мс.
Скриншот c названием фильма
Скриншоты
[reactorr.org].t17605.torrent
Торрент: Зарегистрирован [ 08-01-2013 20:25 ] · 918B34A4931B93F2E4BDCEF5FEF1EF456D13DF0B

Скачать .torrent

Скачать

11 KB

Статус: ? недооформлено
Скачан: 0 раз
Размер: 2,17 GB
terms.php
[Профиль] [ЛС]
Показать сообщения:    
Ответить на тему

Текущее время: 25-Мар 18:48

Часовой пояс: UTC + 3



Вы не можете начинать темы
Вы не можете отвечать на сообщения
Вы не можете редактировать свои сообщения
Вы не можете удалять свои сообщения
Вы не можете голосовать в опросах
Вы не можете прикреплять файлы к сообщениям
Вы можете скачивать файлы