Морфий (Алексей Балабанов) [2008, драма, DVDRip]

Ответить на тему
Статистика раздачи
Размер:  1,46 GB   |    Зарегистрирован:  4 года 7 месяцев   |    Скачан:  1 раз
Сидов:  186  [  0 KB/s  ]   Подробная статистика пиров
 
     
 
 
Автор Сообщение

PheRum ®

Пол: Не указан

Стаж: 5 лет 10 месяцев

Сообщений: 1546

Создавать темы 12-Янв-2013 18:21

[Цитировать]

Морфий / Морфiй
Жанр: драма
Год выпуска: 2008
Продолжительность: 01:47:16
Режиссёр: Алексей Балабанов
В ролях:
Леонид Бичевин
Ингеборга Дапкунайте
Светлана Письмиченко
Андрей Панин
Сергей Гармаш
Алексей Полуян
Валерий Зайцев
Александр Мосин
Ирина Ракшина
Даниил Шигапов
Описание:
1917 год, время смуты, революции, надежд и потерь. В больницу уездного города N приезжает 23-летний доктор Поляков. Однажды, борясь за жизнь пациента, Поляков ставит под угрозу свою; спасает его укол морфия. Но Поляков не верит, что пагубное пристрастие может возникнуть у здравомыслящего человека, тем более - у врача…
[kp]http://www.kinopoisk.ru/film/398099/[/kp]
Качество видео: DVDRip
Формат видео: AVI
Видео: 720x384 (1.88:1), 25 fps, XviD build 64 ~1484 kbps avg, 0.21 bit/pixel
Аудио: 48 kHz, AC3 Dolby Digital, 3/2 (L,C,R,l,r) + LFE ch, ~448 kbps
Семпл
MediaInfo
Общее
Полное имя : D:\Torrent\Морфий_1.46\Морфий_1.46.avi
Формат : AVI
Формат/Информация : Audio Video Interleave
Размер файла : 1,46 Гбайт
Продолжительность : 1 ч. 47 м.
Общий поток : 1942 Кбит/сек
Программа кодирования : VirtualDubModRus 1.5.10.2 (build 2540/release)
Библиотека кодирования : VirtualDubMod build 2540/release
Видео
Идентификатор : 0
Формат : MPEG-4 Visual
Профиль формата : Advanced Simple@L5
Параметр BVOP формата : 1
Параметр QPel формата : Нет
Параметр GMC формата : Без точки перехода
Параметр матрицы формата : Выборочная
Идентификатор кодека : XVID
Идентификатор кодека/Подсказка : XviD
Продолжительность : 1 ч. 47 м.
Битрейт : 1485 Кбит/сек
Ширина : 720 пикселей
Высота : 384 пикселя
Соотношение сторон : 1,875
Частота кадров : 25,000 кадров/сек
Цветовое пространство : YUV
Субдискретизация насыщенности : 4:2:0
Битовая глубина : 8 бит
Тип развёртки : Прогрессивная
Метод сжатия : С потерями
Бит/(Пиксели*Кадры) : 0.215
Размер потока : 1,11 Гбайт (76%)
Библиотека кодирования : XviD 64
Аудио
Идентификатор : 1
Формат : AC-3
Формат/Информация : Audio Coding 3
Расширение режима : CM (complete main)
Идентификатор кодека : 2000
Продолжительность : 1 ч. 47 м.
Вид битрейта : Постоянный
Битрейт : 448 Кбит/сек
Каналы : 6 каналов
Расположение каналов : Front: L C R, Side: L R, LFE
Частота : 48,0 КГц
Битовая глубина : 16 бит
Метод сжатия : С потерями
Задержка видео : 200 мс.
Размер потока : 344 Мбайт (23%)
Выравнивание : Разделение по промежуткам
Продолжительность промежутка : 40 мс. (1,00 видеокадр)
Время предзагрузки промежутка : 500 мс.
Скриншот c названием фильма
Скриншоты
[reactorr.org].t17764.torrent
Торрент: Зарегистрирован [ 12-01-2013 18:21 ] · BC3FD741ADAEC060924415E60A94BF14A2989FF7

Скачать .torrent

Скачать

15 KB

Статус: проверено
Скачан: 1 раз
Размер: 1,46 GB
terms.php
[Профиль] [ЛС]
Показать сообщения:    
Ответить на тему

Текущее время: 24-Авг 05:51

Часовой пояс: UTC + 3



Вы не можете начинать темы
Вы не можете отвечать на сообщения
Вы не можете редактировать свои сообщения
Вы не можете удалять свои сообщения
Вы не можете голосовать в опросах
Вы не можете прикреплять файлы к сообщениям
Вы можете скачивать файлы