Самка (Григорий Константинопольский) [2010, комедия, сказка для взрослых, HDTVRip-AVC]

Ответить на тему
Статистика раздачи
Размер:  1,1 GB   |    Зарегистрирован:  4 года 8 месяцев   |    Скачан:  0 раз
Сидов:  10  [  0 KB/s  ]   Личеров:  1  [  0 KB/s  ]   Подробная статистика пиров
 
     
 
 
Автор Сообщение

Crash08 ®

Пол: Мужской

Стаж: 5 лет 11 месяцев

Сообщений: 4789

Создавать темы 17-Янв-2013 23:10

[Цитировать]

Самка
Жанр: комедия, сказка для взрослых
Год выпуска: 2010
Продолжительность: 01:18:27
Режиссёр: Григорий Константинопольский
В ролях:
Екатерина Вилкова,
Александр Стриженов,
Кристина Бабушкина,
Павел Деревянко,
Юрий Колокольников,
Константин Мурзенко,
Артур Сардай,
Григорий Константинопольский,
Людмила Кирюшина,
Семен Филимонов
Описание: «О, Боже!!!!… Невероятно!!!… Я верила — Снежный Человек существует. Он есть!!!… Он похитил меня!!! Он добрый!!!… Мы идем знакомиться с его родителями!!!… Мне кажется, я ему нравлюсь. Ваня — дай грибочков!!!» — вот так начинается необычайный видеорепортаж, записанный на камеру, которую случайно нашли в лесу охотники. Что это — сенсация? Русский Кинг-Конг? А может быть, пронзительная история любви? Полгода назад, где-то на Урале, в тайге, пропала тележурналистка Лариса Дебомонова. Где она — никому не известно. Давайте досмотрим до конца этот полуторачасовой сюжет. Возможно, мы узнаем, что же с ней случилось...
Семпл: http://multi-up.com/817260
Качество видео: HDTVRip-AVC (источник неизвестен)
Формат видео: MKV
Видео: AVC H.264, 1280x538 (2,40:1), 25 fps, 1800 kbps
Аудио: AAC-LC, 44.1 kHz, stereo, 192 kbps
MediaInfo
Общее
Полное имя : E:\КИНО\Отечественное кино\Самка\2010_Самка_hdtv720p.mkv
Формат : MPEG-4
Профиль формата : Base Media
Идентификатор кодека : isom
Размер файла : 1,10 Гбайт
Продолжительность : 1 ч. 18 м.
Общий поток : 1999 Кбит/сек
Программа кодирования : Lavf54.22.104
Видео
Идентификатор : 1
Формат : AVC
Формат/Информация : Advanced Video Codec
Профиль формата : High@L3.1
Параметр CABAC формата : Да
Параметр ReFrames формата : 3 кадра
Идентификатор кодека : avc1
Идентификатор кодека/Информация : Advanced Video Coding
Продолжительность : 1 ч. 18 м.
Битрейт : 1800 Кбит/сек
Ширина : 1280 пикселей
Высота : 538 пикселей
Соотношение сторон : 2,40:1
Режим частоты кадров : Постоянный
Частота кадров : 25,000 кадров/сек
Цветовое пространство : YUV
Субдискретизация насыщенности : 4:2:0
Битовая глубина : 8 бит
Тип развёртки : Прогрессивная
Бит/(Пиксели*Кадры) : 0.105
Размер потока : 1010 Мбайт (90%)
Библиотека кодирования : x264 core 120
Настройки программы : cabac=1 / ref=3 / deblock=1:0:0 / analyse=0x3:0x133 / me=umh / subme=7 / psy=1 / psy_rd=1.00:0.00 / mixed_ref=1 / me_range=32 / chroma_me=1 / trellis=2 / 8x8dct=1 / cqm=0 / deadzone=21,11 / fast_pskip=1 / chroma_qp_offset=-2 / threads=12 / sliced_threads=0 / nr=0 / decimate=1 / interlaced=0 / bluray_compat=0 / constrained_intra=0 / bframes=0 / weightp=0 / keyint=75 / keyint_min=26 / scenecut=40 / intra_refresh=0 / rc_lookahead=50 / rc=2pass / mbtree=0 / bitrate=1800 / ratetol=1.0 / qcomp=0.20 / qpmin=10 / qpmax=51 / qpstep=4 / cplxblur=20.0 / qblur=0.5 / vbv_maxrate=2000 / vbv_bufsize=2000 / nal_hrd=none / ip_ratio=1.40 / aq=1:1.00
Основные цвета : BT.709
Характеристики трансфера : BT.709
Коэффициенты матрицы : BT.709
Аудио
Идентификатор : 2
Формат : AAC
Формат/Информация : Advanced Audio Codec
Профиль формата : LC
Идентификатор кодека : 40
Продолжительность : 1 ч. 18 м.
Вид битрейта : Постоянный
Битрейт : 192 Кбит/сек
Каналы : 2 канала
Расположение каналов : Front: L R
Частота : 44,1 КГц
Метод сжатия : С потерями
Размер потока : 108 Мбайт (10%)
Скриншот названия
Скриншоты
[reactorr.org].t17952.torrent
Торрент: Зарегистрирован [ 17-01-2013 23:10 ] · D08E0F9A495C698602553D7E7AB88E6EA34BCAEC

Скачать .torrent

Скачать

3 KB

Статус: проверено
Скачан: 0 раз
Размер: 1,1 GB
terms.php
[Профиль] [ЛС]
Показать сообщения:    
Ответить на тему

Текущее время: 23-Сен 04:56

Часовой пояс: UTC + 3



Вы не можете начинать темы
Вы не можете отвечать на сообщения
Вы не можете редактировать свои сообщения
Вы не можете удалять свои сообщения
Вы не можете голосовать в опросах
Вы не можете прикреплять файлы к сообщениям
Вы можете скачивать файлы