Спартак: Война проклятых / Spartacus: War of the Damned (2013) [720p] HDTVRip [Трейлер] [EN]

Ответить на тему
Статистика раздачи
Размер:  80 MB   |    Зарегистрирован:  3 года 11 месяцев   |    Скачан:  1 раз

Полного источника не было: 3 года 11 месяцев

 
     
 
 
 
Автор
Сообщение

-Спартак: Война проклятых / Spartacus: War of the Damned- -Русское название: Спартак: Война проклятых
Оригинальное название: Spartacus: War of the Damned
Год выпуска: 2013
Производство: США / StarZ
Жанр: История, Боевик, Драма
Перевод: Отсутствует
Язык: Английский-Дата мировой премьеры: Январь 2013
Дата российской премьеры: N/A
Дата выхода: DVD/Blu-Ray: N/A-Режиссер: Сэм Рейми
Актеры: Ману Беннетт, Питер Менса, Ник Тарабэй, Вива Скубижевски, Джей Кортни, Лесли-Энн Брандт, Эрин Каммингс, Энди Уитфилд, Джон Ханна, Крэйг Паркер-Описание фильма:
Последний сезон "Спартак" с подзаголовком "Война проклятых" завершит сериал.
В прошлом сезоне (Спартак: Месть) Спартак привёл рабов к победе над римлянами у подножия Везувия и расправился с Клавдием. В «Войне Проклятых» появятся Гай Юлий Цезарь (сыграет Тодд Ласанс) и Марк Лициний Красс (Саймон Мерреллс).
Красс станет грозным врагом и будет “двигать” новый сезон драмы. “Может быть, он не может сравниться со Спартаком в бою один-на-один, но он такой же хитрый, умный и опасный, как сам Спартак”, — говорит сценарист и исполнительный продюсер сериала Стивен ДеНайт.-Продолжительность: 00:01:24
Качество видео: HDTVRip-Видеокодек: MPEG-4 AVC/H.264
Битрейт видео: ~7500 Kbps
Размер кадра: 1280x720
Аудиокодек: AС3 2.0
Битрейт аудио: 256 Kbps

MediaInfo:

Код:
General
Unique ID                      : 172309114052160042230648136724610695882 (0x81A1873B0637409A83D721CFEE6642CA)
Complete name                  : E:\ЗАГРУЗКИ\Spartacus_War_of_the_Damned_Trailer.mkv
Format                         : Matroska
Format version                 : Version 2
File size                      : 80.1 MiB
Duration                       : 1mn 24s
Overall bit rate               : 7 914 Kbps
Encoded date                   : UTC 2012-07-12 19:37:21
Video
ID                             : 1
Format                         : AVC
Format/Info                    : Advanced Video Codec
Format profile                 : [url=mailto:High@L4.1]High@L4.1[/url]
Format settings, CABAC         : Yes
Format settings, ReFrames      : 5 frames
Codec ID                       : V_MPEG4/ISO/AVC
Duration                       : 1mn 24s
Bit rate                       : 7 500 Kbps
Nominal bit rate               : 8 400 Kbps
Width                          : 1 280 pixels
Height                         : 720 pixels
Display aspect ratio           : 16:9
Frame rate mode                : Variable
Frame rate                     : 23.976 fps
Color space                    : YUV
Chroma subsampling             : 4:2:0
Bit depth                      : 8 bits
Scan type                      : Progressive
Bits/(Pixel*Frame)             : 0.339
Stream size                    : 76.0 MiB (95%)
Writing library                : x264 core 124 r2197M 69a0443
Encoding settings              : cabac=1 / ref=6 / deblock=1:0:0 / analyse=0x3:0x133 / me=tesa / subme=10 / psy=1 / psy_rd=1.00:0.20 / mixed_ref=1 / me_range=16 / chroma_me=1 / trellis=2 / 8x8dct=1 / cqm=0 / deadzone=21,11 / fast_pskip=1 / chroma_qp_offset=-3 / threads=2 / sliced_threads=0 / nr=0 / decimate=1 / interlaced=0 / bluray_compat=0 / constrained_intra=0 / bframes=6 / b_pyramid=1 / b_adapt=2 / b_bias=0 / direct=3 / weightb=1 / open_gop=0 / weightp=2 / keyint=230 / keyint_min=23 / scenecut=40 / intra_refresh=0 / rc_lookahead=40 / rc=abr / mbtree=1 / bitrate=8400 / ratetol=1.0 / qcomp=0.60 / qpmin=10 / qpmax=51 / qpstep=4 / ip_ratio=1.40 / aq=1:1.00
Default                        : Yes
Forced                         : No
Encoded date                   : UTC 1970-01-01 00:00:00
HANDLER_NAME                   : VideoHandler
Audio
ID                             : 2
Format                         : AC-3
Format/Info                    : Audio Coding 3
Mode extension                 : CM (complete main)
Format settings, Endianness    : Big
Codec ID                       : A_AC3
Duration                       : 1mn 24s
Bit rate mode                  : Constant
Bit rate                       : 256 Kbps
Channel(s)                     : 2 channels
Channel positions              : Front: L R
Sampling rate                  : 44.1 KHz
Bit depth                      : 16 bits
Compression mode               : Lossy
Delay relative to video        : 29ms
Stream size                    : 2.59 MiB (3%)
Default                        : Yes
Forced                         : No
Encoded date                   : UTC 2012-07-12 19:37:21
HANDLER_NAME                   : IsoMedia File Produced by Google, 5-11-2011
Скриншоты:- -Время раздачи: 24/7
до 3x скачавших..
 
Показать сообщения:    
Ответить на тему