Зловещие мертвецы: Черная книга / Evil Dead (2013) [1080p] HDTVRip [Тизер]

Ответить на тему
Статистика раздачи
Размер:  118 MB   |    Зарегистрирован:  4 года 3 месяца   |    Скачан:  1 раз

Полного источника не было: 4 года 3 месяца

 
     
 
 
Автор Сообщение

Philosoph ®

Пол: Не указан

Стаж: 5 лет 1 месяц

Сообщений: 1269

Создавать темы 20-Янв-2013 19:19

[Цитировать]

-Зловещие мертвецы: Черная книга / Evil Dead- -Русское название: Зловещие мертвецы: Черная книга
Оригинальное название: Evil Dead
Год выпуска: 2013
Производство: США / FilmDistrict, Ghost House Pictures, Sony Pictures Entertainment
Жанр: Ужасы
Перевод: Профессиональный (полное дублирование)-Дата мировой премьеры: 12 апреля 2013
Дата российской премьеры: 25 апреля 2013, «WDSSPR»
Дата выхода DVD/Blu Ray: N/A-Режиссер: Федерико Альварес
Актеры: Джейн Леви, Джессика Лукас, Шайло Фернандез, Лу Тэйлор Пуччи, Элизабет Блэкмор-Описание фильма:
Молодая женщина Миа, пытающаяся избавиться от наркозависимости, отправляется вместе с братом и группой друзей в удалённую хижину, где они открывают Книгу мёртвых, что приводит к опасности и ужасу.- -Продолжительность: 00:01:21
Качество видео: HDTVRip-Видеокодек: MPEG-4 AVC/H.264
Битрейт видео: ~12.1 Mbps
Размер кадра: 1920x1080
Аудиокодек: AAC 2.0
Битрейт аудио: 122 Kbps
MediaInfo:
General
Complete name                            : E:\evildead_itr_a_rus-h264_hd.mov
Format                                   : MPEG-4
Format profile                           : QuickTime
Codec ID                                 : qt
File size                                : 118 MiB
Duration                                 : 1mn 21s
Overall bit rate mode                    : Variable
Overall bit rate                         : 12.3 Mbps
Encoded date                             : UTC 2012-11-20 18:26:57
Tagged date                              : UTC 2012-11-20 18:28:14
Writing library                          : Apple QuickTime
Media/UUID                               : 0DF6FAA6-71D8-4099-AA0F-70B9D7CB2923
Media/History/UUID                       : CD46EB54-4E59-4393-889B-B1021F9B6055
Video
ID                                       : 1
Format                                   : AVC
Format/Info                              : Advanced Video Codec
Format profile                           : [url=mailto:Main@L4.0]Main@L4.0[/url]
Format settings, CABAC                   : No
Format settings, ReFrames                : 2 frames
Format settings, GOP                     : N=1
Codec ID                                 : avc1
Codec ID/Info                            : Advanced Video Coding
Duration                                 : 1mn 21s
Bit rate mode                            : Variable
Bit rate                                 : 12.1 Mbps
Width                                    : 1 920 pixels
Height                                   : 1 080 pixels
Display aspect ratio                     : 16:9
Frame rate mode                          : Constant
Frame rate                               : 24.000 fps
Color space                              : YUV
Chroma subsampling                       : 4:2:0
Bit depth                                : 8 bits
Scan type                                : Progressive
Bits/(Pixel*Frame)                       : 0.244
Stream size                              : 117 MiB (99%)
Language                                 : English
Encoded date                             : UTC 2012-11-20 18:26:57
Tagged date                              : UTC 2012-11-20 18:28:14
Color primaries                          : BT.709
Transfer characteristics                 : BT.709
Matrix coefficients                      : BT.709
Audio
ID                                       : 2
Format                                   : AAC
Format/Info                              : Advanced Audio Codec
Format profile                           : LC
Codec ID                                 : 40
Duration                                 : 1mn 21s
Source duration                          : 1mn 21s
Bit rate mode                            : Constant
Bit rate                                 : 122 Kbps
Nominal bit rate                         : 128 Kbps
Channel(s)                               : 2 channels
Channel positions                        : Front: L R
Sampling rate                            : 48.0 KHz
Compression mode                         : Lossy
Stream size                              : 1.17 MiB (1%)
Source stream size                       : 1.17 MiB (1%)
Language                                 : English
Encoded date                             : UTC 2012-11-20 18:26:58
Tagged date                              : UTC 2012-11-20 18:28:14
Menu
ID                                       : 3
Duration                                 : 1mn 21s
Language                                 : English
Encoded date                             : UTC 2012-11-20 18:28:14
Tagged date                              : UTC 2012-11-20 18:28:14
Скриншоты:- -Время раздачи: 24/7 до 3х скачавших, дальше по мере возможности...
Постер и оформление Long__Boy®
[reactorr.org].t18042.torrent
Торрент: Зарегистрирован [ 20-01-2013 19:19 ] · 20B05FA5C76762BA7C197979E8E157C58F1F3BA4

Скачать .torrent

Скачать

19 KB

Статус: проверено
Скачан: 1 раз
Размер: 118 MB
terms.php
[Профиль] [ЛС]

Жнец

Пол: Женский

Стаж: 4 года 10 месяцев

Сообщений: 5664

Создавать темы 21-Янв-2013 03:30 (спустя 8 часов)

[Цитировать]

Ууууууууууууууууууууууух, а вот эту мерзапакастную хрень я посмотрю, у меня от трейлера аж лицо перекосило! Брррр жесть!
[Профиль] [ЛС]
Показать сообщения:    
Ответить на тему

Текущее время: 27-Апр 08:33

Часовой пояс: UTC + 3



Вы не можете начинать темы
Вы не можете отвечать на сообщения
Вы не можете редактировать свои сообщения
Вы не можете удалять свои сообщения
Вы не можете голосовать в опросах
Вы не можете прикреплять файлы к сообщениям
Вы можете скачивать файлы