Робокоп / RoboCop (2014) [Н264/720p-LQ] HDTVRip [Трейлер] [EN]

Ответить на тему
Статистика раздачи
Размер:  8 MB   |    Зарегистрирован:  4 года 2 месяца   |    Скачан:  3 раза

Полного источника не было: 4 года

 
     
 
 
Автор Сообщение

Philosoph ®

Пол: Не указан

Стаж: 5 лет

Сообщений: 1269

Создавать темы 20-Янв-2013 19:56

[Цитировать]

-Робокоп / RoboCop- -Русское название: Робокоп
Оригинальное название: RoboCop
Год выпуска: 2014
Производство: США / Strike Entertainment
Жанр: Фантастика, Боевик
Перевод: Отсутствует
Язык: Английский-Дата мировой премьеры: 6 февраля 2014
Дата российской премьеры: N/A
Дата выхода DVD релиза: N/A
Дата выхода Blu-Ray релиза: N/A-Режиссер: Жозе Падилья
Актеры: Гари Олдман, Сэмюэл Л. Джексон, Юэль Киннаман, Эбби Корниш, Хью Лори-Описание фильма:
Наши дни, Лос-Анджелес. Двадцать лет спустя после закрытия программы «Робокоп», городские власти решают возобновить проект.-бюджет $100 000 000- -Продолжительность: 00:00:55
Качество видео: HDTVRip-Формат: MKV
Видеокодек: MPEG-4 AVC/H.264
Битрейт видео: ~1 000 Kbps
Размер кадра: 1280х720
Аудиокодек: AC3 2.0
Битрейт аудио: 256 Kbps
О создании римейка:
Бразильский режиссер Хоcе Падилья («Элитный отряд: Враг внутри»), получивший работу режиссера в ремейке «Робокопа» для "MGM", сегодня рассказал, чего стоит ожидать от его версии этого культового персонажа и чем его видение отличается от оригинала:
- Конечно, первый «Робокоп» был абсолютно потрясающим. Даже если бы не было фильма, сама идея просто гениальна. Тут есть все, включая социальную подоплеку и освещение весьма непростых вопросов: «Когда мы теряем человечность?». Именно это происходит, когда части тела заменяют на механические. Этот вопрос очень важен, так как к этому все и идет.
Лично я сделаю все немного по-своему. В первой серии нам показали только как Алекса Мерфи расстреляли преступники, больницу, а затем практически сразу Робокопа. Нам не показали, как именно это произошло, а я сделаю это. Как его собирали? Как из человека можно сделать робота? Что будет, если лишить индивидуума человечности и перепрошить ему мозг?
Юэль Киннаман официально получил роль Робокопа в ребуте франшизы под режиссурой Хосе Падильи. Эрик Ньюман и Марк Абрахам уже приступили к продюсерским обязанностям, Джош Зетумер написал сценарий, его отшлифовал Ник Шенк. MGM планируют начать съемки ленты уже этим летом.
Вы можете знать этого 32-летнего актера по таким фильмам, как «Шальные деньги» (и его сиквел), «Девушка с татуировкой дракона» (ремейк), «Код доступа «Кейптаун» и сериалу «Убийство».
Эта картина, как и оригинал Пола Верховена, расскажет про офицера полиции, который во время одной из операций получает смертельные ранения, после чего силами продвинутых и секретных технологий становится боевым киборгом.
Гари Олдман прописался в ремейке «Робокопа» Хосе Падильи на правах Нортона, ученого, который с помощью своих технологий вернул к жизни убитого полицейского Алекса Мерфи (Юэль Киннаман).
Хью Лори, который, по его словам, завязал с телевидением, заполучил роль злодея в «Робокопе» режиссера Хосе Падильи. Он изобразит персонажа, который по плечу только одному человеку, радовавшему своим Хаусом в течение восьми лет, - саркастичного негодяя, стоящего во главе корпорации Omni Corp. Именна она сделала из практически погибшего тела Алекса Мерфи робота-полицейского.
Сэмюэл Л. Джексон стал частью «Робокопа» Хосе Падильи. Он играет телемагната Пэта Новака.
MediaInfo:
eneral
Unique ID                                : 229286018305512925599970642543794625554 (0xAC7EE17F47B6E5FAA3E1295935DE9C12)
Complete name                            : E:\ЗАГРУЗКИ\RoboCop (2013) Omnicorp Product Line Viral [HD]720p.mkv
Format                                   : Matroska
Format version                           : Version 2
File size                                : 8.25 MiB
Duration                                 : 55s 200ms
Overall bit rate                         : 1 254 Kbps
Encoded date                             : UTC 2012-07-08 07:26:58
Writing application                      : mkvmerge v5.5.0 ('Healer') built on Apr  6 2012 21:43:24
Writing library                          : libebml v1.2.3 + libmatroska v1.3.0
Video
ID                                       : 1
Format                                   : AVC
Format/Info                              : Advanced Video Codec
Format profile                           : [url=mailto:High@L4.1]High@L4.1[/url]
Format settings, CABAC                   : Yes
Format settings, ReFrames                : 5 frames
Muxing mode                              : Header stripping
Codec ID                                 : V_MPEG4/ISO/AVC
Duration                                 : 55s 180ms
Bit rate                                 : 1 000 Kbps
Width                                    : 1 280 pixels
Height                                   : 720 pixels
Display aspect ratio                     : 16:9
Frame rate mode                          : Variable
Frame rate                               : 23.976 fps
Color space                              : YUV
Chroma subsampling                       : 4:2:0
Bit depth                                : 8 bits
Scan type                                : Progressive
Bits/(Pixel*Frame)                       : 0.045
Stream size                              : 6.40 MiB (78%)
Writing library                          : x264 core 124 r2197M 69a0443
Encoding settings                        : cabac=1 / ref=6 / deblock=1:0:0 / analyse=0x3:0x133 / me=tesa / subme=10 / psy=1 / psy_rd=1.00:0.20 / mixed_ref=1 / me_range=16 / chroma_me=1 / trellis=2 / 8x8dct=1 / cqm=0 / deadzone=21,11 / fast_pskip=1 / chroma_qp_offset=-3 / threads=2 / sliced_threads=0 / nr=0 / decimate=1 / interlaced=0 / bluray_compat=0 / constrained_intra=0 / bframes=6 / b_pyramid=1 / b_adapt=2 / b_bias=0 / direct=3 / weightb=1 / open_gop=0 / weightp=2 / keyint=230 / keyint_min=23 / scenecut=40 / intra_refresh=0 / rc_lookahead=40 / rc=2pass / mbtree=1 / bitrate=1000 / ratetol=1.0 / qcomp=0.60 / qpmin=10 / qpmax=51 / qpstep=4 / cplxblur=20.0 / qblur=0.5 / ip_ratio=1.40 / aq=1:1.00
Default                                  : Yes
Forced                                   : No
Audio
ID                                       : 2
Format                                   : AC-3
Format/Info                              : Audio Coding 3
Mode extension                           : CM (complete main)
Format settings, Endianness              : Big
Muxing mode                              : Header stripping
Codec ID                                 : A_AC3
Duration                                 : 55s 200ms
Bit rate mode                            : Constant
Bit rate                                 : 256 Kbps
Channel(s)                               : 2 channels
Channel positions                        : Front: L R
Sampling rate                            : 44.1 KHz
Bit depth                                : 16 bits
Compression mode                         : Lossy
Delay relative to video                  : 29ms
Stream size                              : 1.68 MiB (20%)
Default                                  : Yes
Forced                                   : No
Скриншоты:- -Время раздачи: 24/7
до 3x скачавших..
[reactorr.org].t18045.torrent
Торрент: Зарегистрирован [ 20-01-2013 19:56 ] · 45E2ACE521127630002655A6AB37D60E2EAAC766

Скачать .torrent

Скачать

11 KB

Статус: проверено
Скачан: 3 раз
Размер: 8 MB
terms.php
[Профиль] [ЛС]

Жнец

Пол: Женский

Стаж: 4 года 9 месяцев

Сообщений: 5664

Создавать темы 21-Янв-2013 03:26 (спустя 7 часов)

[Цитировать]

что по мне, они только испортят хороший старый фильм!
[Профиль] [ЛС]

Шрайк

Пол: Мужской

Стаж: 4 года 6 месяцев

Сообщений: 592

Создавать темы 21-Янв-2013 07:31 (спустя 4 часа)

[Цитировать]

Уже на диске видно что из крепкого мужика заделали яойку! al
Но вдруг этот яойка окажется мужественней, надо посмотреть будет! )
[Профиль] [ЛС]
Показать сообщения:    
Ответить на тему

Текущее время: 26-Мар 02:53

Часовой пояс: UTC + 3



Вы не можете начинать темы
Вы не можете отвечать на сообщения
Вы не можете редактировать свои сообщения
Вы не можете удалять свои сообщения
Вы не можете голосовать в опросах
Вы не можете прикреплять файлы к сообщениям
Вы можете скачивать файлы