Форсаж 6 / Fast & Furious 6 (Джастин Лин) [2013, боевик, HDTVRip 1080p | Трейлер]

Ответить на тему
Статистика раздачи
Размер:  242 MB   |    Зарегистрирован:  4 года 6 месяцев   |    Скачан:  7 раз
Сидов:  245  [  0 KB/s  ]   Личеров:  4  [  0 KB/s  ]   Подробная статистика пиров
 
     
 
 
Автор Сообщение

Шрайк ®

Пол: Мужской

Стаж: 4 года 11 месяцев

Сообщений: 593

Создавать темы 10-Фев-2013 10:30

[Цитировать]

Форсаж 6 / Fast & Furious 6 (Джастин Лин) [2013, боевик, HDTVRip 1080p | Трейлер] Русское название: Форсаж 6
Оригинальное название: Fast & Furious 6
Год выпуска: 2013
Производство: США
Жанр: Боевик, Триллер, Драма, Криминал
Перевод: Профессиональный (полное дублирование)-Дата мировой премьеры: 22 мая 2013
Дата российской премьеры: 23 мая 2013, «UPI»
Дата выхода DVD/Blu Ray: 26 сентября 2013, «Двадцатый Век Фокс СНГ»-Режиссер: Джастин Лин
Актеры: Вин Дизель, Дуэйн Джонсон, Пол Уокер, Ева Мендес, Мишель Родригес, Рианна, Джордана Брюстер, Джина Карано, Тайрез Гибсон, Люк Эванс, Джо Таслим, Cанг Кенг-Описание фильма: После того, как Дом и Брайн были в Рио и ограбили, и свергли империю вора в законе, и их команда получила 100 миллионов, наши герои оказались разбросаны по всему миру. Но их не способность вернуться домой и вечно жить в бегах, сделала их жизнь неполной. Между тем, Хоббс отслеживал организацию смертельно опасных наемников-водителей по двенадцати странам, чьим вдохновителем и вторым-в-команде стала любовь Дома, которую считали мертвой, Летти. Единственный способ остановить криминальный наряд, это превосходить их на улицах, поэтому Хоббс спрашивает Дома, сможет ли собраться его элитная команда в Лондоне. Оплата? Полное помилование для всех, чтобы они смогли вернуться домой к своей семье.-Продолжительность: 00:03:16
Качество видео: HDTVRip-Видеокодек: MPEG-4 AVC/H.264
Битрейт видео: ~10000 Кбит/сек
Размер кадра: 1920x1080
Аудиокодек: AC3 2.0
Битрейт аудио: 320 Kbps
MediaInfo:
Общее
Полное имя : D:ФИЛЬМЫFast & Furious 6.mp4
Формат : MPEG-4
Профиль формата : Base Media
Идентификатор кодека : isom
Размер файла : 242 Мбайт
Продолжительность : 3 м. 16 с.
Общий поток : 10,3 Мбит/сек
Программа кодирования : Lavf53.18.0
Видео
Идентификатор : 1
Формат : AVC
Формат/Информация : Advanced Video Codec
Профиль формата : High@L4.0
Параметр CABAC формата : Да
Параметр ReFrames формата : 4 кадра
Идентификатор кодека : avc1
Идентификатор кодека/Информация : Advanced Video Coding
Продолжительность : 3 м. 16 с.
Битрейт : 10000 Кбит/сек
Ширина : 1920 пикселей
Высота : 1080 пикселей
Соотношение сторон : 16:9
Режим частоты кадров : Постоянный
Частота кадров : 29,970 кадров/сек
Цветовое пространство : YUV
Субдискретизация насыщенности : 4:2:0
Битовая глубина : 8 бит
Тип развёртки : Прогрессивная
Бит/(Пиксели*Кадры) : 0.161
Размер потока : 234 Мбайт (97%)
Библиотека кодирования : x264 core 119
Настройки программы : cabac=1 / ref=1 / deblock=1:0:0 / analyse=0x3:0x3 / me=dia / subme=1 / psy=1 / psy_rd=1.00:0.00 / mixed_ref=0 / me_range=16 / chroma_me=1 / trellis=0 / 8x8dct=1 / cqm=0 / deadzone=21,11 / fast_pskip=1 / chroma_qp_offset=0 / threads=4 / sliced_threads=0 / nr=0 / decimate=1 / interlaced=0 / bluray_compat=0 / constrained_intra=0 / bframes=3 / b_pyramid=2 / b_adapt=1 / b_bias=0 / direct=1 / weightb=1 / open_gop=0 / weightp=1 / keyint=250 / keyint_min=25 / scenecut=40 / intra_refresh=0 / rc=abr / mbtree=0 / bitrate=10000 / ratetol=1.0 / qcomp=0.60 / qpmin=0 / qpmax=69 / qpstep=4 / ip_ratio=1.40 / pb_ratio=1.30 / aq=1:1.00
Аудио
Идентификатор : 2
Формат : AC-3
Формат/Информация : Audio Coding 3
Расширение режима : CM (complete main)
Параметр Endianness формата : Big
Идентификатор кодека : ac-3
Продолжительность : 3 м. 16 с.
Вид битрейта : Постоянный
Битрейт : 320 Кбит/сек
Каналы : 2 канала
Расположение каналов : Front: L R
Частота : 48,0 КГц
Битовая глубина : 16 бит
Метод сжатия : С потерями
Задержка видео : 67 мс.
Размер потока : 7,50 Мбайт (3%)
Скриншоты
[reactorr.org].t18435.torrent
Торрент: Зарегистрирован [ 10-02-2013 10:30 ] · DBA4A2301A4FBE3B15120F5503F1E440A0F3CA02

Скачать .torrent

Скачать

19 KB

Статус: проверено
Скачан: 7 раз
Размер: 242 MB
terms.php
[Профиль] [ЛС]

Шрайк ®

Пол: Мужской

Стаж: 4 года 11 месяцев

Сообщений: 593

Создавать темы 10-Фев-2013 10:36 (спустя 5 минут)

[Цитировать]

УРРРААА!!! Жду мая
[Профиль] [ЛС]

Philosoph

Пол: Не указан

Стаж: 5 лет 5 месяцев

Сообщений: 1269

Создавать темы 10-Фев-2013 11:27 (спустя 51 минута)

[Цитировать]

Шикарный фильм будет! Будем ждать...=)
[Профиль] [ЛС]
Показать сообщения:    
Ответить на тему

Текущее время: 19-Авг 04:49

Часовой пояс: UTC + 3



Вы не можете начинать темы
Вы не можете отвечать на сообщения
Вы не можете редактировать свои сообщения
Вы не можете удалять свои сообщения
Вы не можете голосовать в опросах
Вы не можете прикреплять файлы к сообщениям
Вы можете скачивать файлы