Туман (Иван Шурховецкий, Артём Аксененко) [2010, Фантастика, драма, военный, DVDRip-AVC]

Ответить на тему
Статистика раздачи
Размер:  2,19 GB   |    Зарегистрирован:  4 года 7 месяцев   |    Скачан:  4 раза
Сидов:  45  [  0 KB/s  ]   Личеров:  2  [  0 KB/s  ]   Подробная статистика пиров
 
     
 
 
Автор Сообщение

PheRum ®

Пол: Не указан

Стаж: 6 лет

Сообщений: 1546

Создавать темы 24-Фев-2013 21:56

[Цитировать]

Туман«Родина - одна на все времена» -Жанр: Фантастика, драма, военный
Год выпуска: 2010
Продолжительность: 02:31:17-Режиссёр: Иван Шурховецкий, Артём Аксененко-В ролях:
Игорь Шмаков - Патрон / сержант Пётр Силантьев
Василий Ракша - рядовой Павел Рюмин
Артём Крестников - Фанат / рядовой Сергей Валеев
Григорий Калинин - Ферштейн / рядовой Завадский
Алексей Марков - Яндекс / рядовой Дмитрий Борщов
Илья Глинников - Бабник / рядовой Антон Чирко
Родион Галюченко - Муха / рядовой Мухин
Дмитрий Сергин - Артист / рядовой Миронов
Иван Лапин - рядовой Михновец
Алексей Ильин - старший лейтенант Корзун
Арчибальд Арчибальдович - подполковник
Анастасия Безбородова - Катерина
Светлана Устинова - Настя
Евгений Куршинский - командир партизанского отряда
Дмитрий Росляков - партизан Глухов-Описание:
Отряд молодых бойцов Российской Армии отрывается от основного строя во время марш-броска, дабы сократить путь, бежит наперерез, но попадает в туман, который переносит его в прошлое, в годы Великой Отечественной Войны. Ребята, видевшие войну только в кино, попадают в лапы безжалостных событий того времени. Всё на грани: храбрость, страх, любовь, ненависть, жизнь, смерть. И некогда задавать вопросы. Живи, дерись за Родину - она одна на все времена.-Доп. факты:
Туман, сквозь который герои попадают в прошлое, создавался пиротехниками. Из-за него у съёмочной группы слезились глаза и было трудно дышать.
Немецких солдат озвучивали немецкие актёры и историки, используя немецкий язык, на котором говорили во времена Второй Мировой войны.-Доп. информация:
Сохранены оригинальные главы, как на DVD.-[kp]http://www.kinopoisk.ru/film/507169/[/kp]
-Качество видео: DVDRip-AVC (DVD9)
Формат видео: MKV-Видео: H.264/AVC, 720x522@1024x522, 16:9, 25fps, 1844kbps
Аудио: AC3, 48kHz, 2ch, 224kbps
MediaInfo
General
Unique ID : 220970657333225912234015564238827347589 (0xA63D668C56B6FCA294C8849E62E8DE85)
Complete name : D:\Films\2010 - Туман.mkv
Format : Matroska
Format version : Version 2
File size : 2.19 GiB
Duration : 2h 31mn
Overall bit rate : 2 070 Kbps
Encoded date : UTC 2012-05-14 11:15:37
Writing application : mkvmerge v5.2.1 ('A Far Off Place') built on Jan 2 2012 23:21:10
Writing library : libebml v1.2.3 + libmatroska v1.3.0
Video
ID : 1
Format : AVC
Format/Info : Advanced Video Codec
Format profile : High@L4.1
Format settings, CABAC : Yes
Format settings, ReFrames : 16 frames
Codec ID : V_MPEG4/ISO/AVC
Duration : 2h 31mn
Bit rate : 1 844 Kbps
Width : 720 pixels
Height : 522 pixels
Display aspect ratio : 1.962
Frame rate : 25.000 fps
Color space : YUV
Chroma subsampling : 4:2:0
Bit depth : 8 bits
Scan type : Progressive
Bits/(Pixel*Frame) : 0.196
Stream size : 1.91 GiB (87%)
Title : H.264, 720x522@1024x522, 25fps, 1844kbps
Writing library : x264 core 120 r2164 da19765
Encoding settings : cabac=1 / ref=16 / deblock=1:-1:-1 / analyse=0x3:0x133 / me=umh / subme=10 / psy=1 / psy_rd=1.00:0.15 / mixed_ref=1 / me_range=24 / chroma_me=1 / trellis=2 / 8x8dct=1 / cqm=0 / deadzone=21,11 / fast_pskip=1 / chroma_qp_offset=-3 / threads=12 / sliced_threads=0 / nr=0 / decimate=1 / interlaced=0 / bluray_compat=0 / constrained_intra=0 / bframes=8 / b_pyramid=0 / b_adapt=2 / b_bias=0 / direct=3 / weightb=1 / open_gop=0 / weightp=2 / keyint=250 / keyint_min=25 / scenecut=40 / intra_refresh=0 / rc_lookahead=60 / rc=2pass / mbtree=1 / bitrate=1844 / ratetol=1.0 / qcomp=0.60 / qpmin=10 / qpmax=51 / qpstep=4 / cplxblur=20.0 / qblur=0.5 / vbv_maxrate=17500 / vbv_bufsize=14000 / nal_hrd=none / ip_ratio=1.40 / aq=1:1.00
Default : Yes
Forced : No
Audio
ID : 2
Format : AC-3
Format/Info : Audio Coding 3
Mode extension : CM (complete main)
Codec ID : A_AC3
Duration : 2h 31mn
Bit rate mode : Constant
Bit rate : 224 Kbps
Channel(s) : 2 channels
Channel positions : Front: L R
Sampling rate : 48.0 KHz
Bit depth : 16 bits
Compression mode : Lossy
Stream size : 242 MiB (11%)
Title : AC3, 48kHz, 2ch, 224kbps
Language : Russian
Default : Yes
Forced : No
Menu
00:00:00.000 : :Chapter 01
00:16:21.040 : :Chapter 02
00:31:48.400 : :Chapter 03
00:49:59.440 : :Chapter 04
01:17:25.840 : :Chapter 05
01:41:03.760 : :Chapter 06
02:03:17.680 : :Chapter 07
02:30:08.080 : :Chapter 08
Скриншот c названием фильма
Скриншоты
[reactorr.org].t18773.torrent
Торрент: Зарегистрирован [ 24-02-2013 21:56 ] · 6E0D45E6DD40E1D139020DA944ADBAF1D45462F7

Скачать .torrent

Скачать

12 KB

Статус: проверено
Скачан: 4 раз
Размер: 2,19 GB
terms.php
[Профиль] [ЛС]
Показать сообщения:    
Ответить на тему

Текущее время: 24-Окт 03:23

Часовой пояс: UTC + 3



Вы не можете начинать темы
Вы не можете отвечать на сообщения
Вы не можете редактировать свои сообщения
Вы не можете удалять свои сообщения
Вы не можете голосовать в опросах
Вы не можете прикреплять файлы к сообщениям
Вы можете скачивать файлы