Мужчина в моей голове (Алексей Пиманов) [2009 г., Комедия, DVDRip]

Ответить на тему
Статистика раздачи
Размер:  1.36 GB   |    Зарегистрирован:  3 года 9 месяцев   |    Скачан:  0 раз
Сидов:  2  [  0 KB/s  ]   Подробная статистика пиров
 
     
 
 
Автор
Сообщение

-Мужчина в моей голове--
Производство: Россия, ОДА-ФИЛЬМ
Режиссер: Алексей Пиманов
Жанр: Комедия
Год выпуска: 2009 г.
Продолжительность: 01:56:33
Российская премьера: 7 января 2010
Дата выхода DVD: 18 марта 2010, «CP-Digital»
В ролях: Ольга Погодина, Алексей Серебряков, Андрей Чернышов, Ольга Медынич, Вася Брыков, Игорь Угольников, Александр Жулин, Андрей Державин, Игорь Верник, Анна Якунина, Егор Баринов, Александр Макогон, Людмила Гаврилова, Вахтанг Беридзе, Александра Живова, Олег Пышненко
-Описание: Под Новый год в голове обаятельной хозяйки книжного магазина Алены невероятным образом появился "внутренний мужской голос". Всю предновогоднюю неделю она с помощью "мужчины в ее голове" справлялась со сложными жизненными ситуациями, находя неординарные решения, и уже не представляла, как может обходиться без него. Но "мужчина в ее голове исчез" неожиданно исчез. Алена в панике...-Сэмпл КиноПоиск
Качество видео: DVDRip
Контейнер: AVI
Видео кодек: XviD
Аудио кодек: AC3
Видео: 704x384 (1.83:1), 25 fps, XviD build 47 ~1474 kbps avg, 0.22 bit/pixel
Аудио: 48 kHz, AC3 Dolby Digital, 2/0 (L,R) ch, ~192 kbps
Cубтитры: отсутствуют

Media Info

Общее
Полное имя : D:\Архив\ФИЛЬМЫ\Muzchina.v.Moey.Golove.2009.XviD.DVDRip.avi
Формат : AVI
Формат/Информация : Audio Video Interleave
Размер файла : 1,36 Гбайт
Продолжительность : 1 ч. 56 м.
Общий поток : 1676 Кбит/сек
Программа кодирования : FairUse Wizard -
Библиотека кодирования : The best and REALLY easy backup tool
Видео
Идентификатор : 0
Формат : MPEG-4 Visual
Профиль формата : Simple@L3
Параметр BVOP формата : Нет
Параметр QPel формата : Нет
Параметр GMC формата : Без точки перехода
Параметр матрицы формата : Default (H.263)
Идентификатор кодека : XVID
Идентификатор кодека/Подсказка : XviD
Продолжительность : 1 ч. 56 м.
Битрейт : 1475 Кбит/сек
Ширина : 704 пикселя
Высота : 384 пикселя
Соотношение сторон : 1,85:1
Частота кадров : 25,000 кадров/сек
Цветовое пространство : YUV
Субдискретизация насыщенности : 4:2:0
Битовая глубина : 8 бит
Тип развёртки : Прогрессивная
Метод сжатия : С потерями
Бит/(Пиксели*Кадры) : 0.218
Размер потока : 1,20 Гбайт (88%)
Библиотека кодирования : XviD 1.2.0.dev47 (UTC 2006-11-01)
Аудио
Идентификатор : 1
Формат : AC-3
Формат/Информация : Audio Coding 3
Расширение режима : CM (complete main)
Параметр Endianness формата : Big
Идентификатор кодека : 2000
Продолжительность : 1 ч. 56 м.
Вид битрейта : Постоянный
Битрейт : 192 Кбит/сек
Каналы : 2 канала
Расположение каналов : Front: L R
Частота : 48,0 КГц
Битовая глубина : 16 бит
Метод сжатия : С потерями
Размер потока : 160 Мбайт (11%)
Выравнивание : Разделение по промежуткам
Продолжительность промежутка : 40 мс. (1,00 видеокадр)
Время предзагрузки промежутка : 500 мс.

Скриншот c названием фильма

Скриншоты

 
Показать сообщения:    
Ответить на тему