Смертельная схватка (Александр Франскевич-Лайе) [2010 г., Военный, ВОВ, DVDRip]

Ответить на тему
Статистика раздачи
Размер:  2,05 GB   |    Зарегистрирован:  3 года 10 месяцев   |    Скачан:  3 раза
Сидов:  1  [  0 KB/s  ]   Подробная статистика пиров
 
     
 
 
Автор Сообщение

surok ®

Пол: Не указан

Создавать темы 10-Май-2013 09:41

[Цитировать]

-Смертельная схватка--
Производство: Россия, ВГТРК
Режиссер: Александр Франскевич-Лайе
Жанр: Военный, ВОВ
Год выпуска: 2010 г.
Продолжительность: 02:50:45
Российская премьера: 9 мая 2010
Дата выхода DVD: 31 августа 2010, «Флагман-Трейд»
В ролях: Владимир Епифанцев, Анна Тараторкина, Александр Тютин, Александр Франскевич-Лайе, Дорота Делонг, Инна Франскевич, Андрей Олиференко, Виктор Рыбчинский, Александр Холодцов, Евгений Никитин, Виктор Васильев (II), Евгений Ивкович, Игорь Подливальчев, Олег Вебер, Сергей Белякович (II), Виталий Котовицкий, Сергей Прокопич, Сергей Лазарь, Руслан Мельников, Александр Гарцуев, Зоя Белохвостик, Виталий Старовойтов, Сергей Шилько, Светлана Аникей, Виталий Кравченко (II), Юлия Метерева, Николай Кузьмич, Иван Мацкевич-Описание: Западная Белоруссия, октябрь 1944 года. Немецкое командование пытается помешать советским войскам войти в Восточную Пруссию. Чтобы исключить утечку информации о своих планах, фашисты используют в работе новый код, который предстоит разгадать советским радистам. Именно такое задание получают генерал-майор Жаров и его подчинённые. Охранять разведчиков приказано группе капитана Белова, которая уже однажды спасла генерала от нападения немецкого десанта. Личная охрана — не просто прихоть генерала. Дело в том, что какой-то неизвестный снайпер много раз пытался убить Жарова, но всякий раз эти попытки удачно предотвращались. Об этом известно всем в штабе. Белов предлагает привлечь к охране Жарова Ольгу Ершову — свою невесту и очень опытного снайпера, чтобы она помогла как можно быстрее вычислить и нейтрализовать неуловимого убийцу. Генерал прислушивается к мнению Белова и соглашается с его идеей. Но сможет ли девушка оправдать такое высокое доверие? Справится ли она с трудной и архиважной задачей?-Качество видео: DVDRip
Контейнер: AVI
Видео кодек: XviD
Аудио кодек: AC3
Видео: 720x400 (1.80:1), 25 fps, XviD build 50 ~1521 kbps avg, 0.21 bit/pixel
Аудио: 48 kHz, AC3 Dolby Digital, 2/0 (L,R) ch, ~192 kbps
Cубтитры: отсутствуют
Media Info
Общее
Полное имя : D:\Smertelnaja.shvatka.2010.XviD.DVDRip.avi
Формат : AVI
Формат/Информация : Audio Video Interleave
Профиль формата : OpenDML
Размер файла : 2,05 Гбайт
Продолжительность : 2 ч. 50 м.
Общий поток : 1721 Кбит/сек
Программа кодирования : VirtualDubMod 1.5.4.1 (build 2178/release)
Библиотека кодирования : VirtualDubMod build 2178/release
Видео
Идентификатор : 0
Формат : MPEG-4 Visual
Профиль формата : Advanced Simple@L5
Параметр BVOP формата : 1
Параметр QPel формата : Нет
Параметр GMC формата : Без точки перехода
Параметр матрицы формата : Выборочная
Идентификатор кодека : XVID
Идентификатор кодека/Подсказка : XviD
Продолжительность : 2 ч. 50 м.
Битрейт : 1520 Кбит/сек
Ширина : 720 пикселей
Высота : 400 пикселей
Соотношение сторон : 16:9
Частота кадров : 25,000 кадров/сек
Цветовое пространство : YUV
Субдискретизация насыщенности : 4:2:0
Битовая глубина : 8 бит
Тип развёртки : Прогрессивная
Метод сжатия : С потерями
Бит/(Пиксели*Кадры) : 0.211
Размер потока : 1,81 Гбайт (88%)
Библиотека кодирования : XviD 1.2.1 (UTC 2008-12-04)
Аудио
Идентификатор : 1
Формат : AC-3
Формат/Информация : Audio Coding 3
Расширение режима : CM (complete main)
Параметр Endianness формата : Big
Идентификатор кодека : 2000
Продолжительность : 2 ч. 50 м.
Вид битрейта : Постоянный
Битрейт : 192 Кбит/сек
Каналы : 2 канала
Расположение каналов : Front: L R
Частота : 48,0 КГц
Битовая глубина : 16 бит
Метод сжатия : С потерями
Размер потока : 234 Мбайт (11%)
Выравнивание : Разделение по промежуткам
Продолжительность промежутка : 96 мс. (2,40 видеокадра)
Время предзагрузки промежутка : 96 мс.
Язык : Russian
Скриншот c названием фильма
Скриншоты
[reactorr.org].t24342.torrent
Торрент: Зарегистрирован [ 10-05-2013 09:41 ] · 9094431987DEBDA658F71694C4894A816FC74092

Скачать .torrent

Скачать

11 KB

Статус: проверено
Скачан: 3 раз
Размер: 2,05 GB
terms.php
 
Показать сообщения:    
Ответить на тему

Текущее время: 29-Мар 22:14

Часовой пояс: UTC + 3



Вы не можете начинать темы
Вы не можете отвечать на сообщения
Вы не можете редактировать свои сообщения
Вы не можете удалять свои сообщения
Вы не можете голосовать в опросах
Вы не можете прикреплять файлы к сообщениям
Вы можете скачивать файлы