Сорокалетний девственник / 40-летний девственник / The 40 Year Old Virgin (Джудд Апатоу / Judd Apatow) [2005, США, комедия, мелодрама, SATRip] [Theatrical Cut, Fullscreen version] Dub

Ответить на тему
Статистика раздачи
Размер:  1,46 GB   |    Зарегистрирован:  3 года 11 месяцев   |    Скачан:  2 раза

Полного источника не было: 8 месяцев 7 дней

 
     
 
 
Автор Сообщение

CR@ZY ®

Пол: Не указан

Стаж: 7 лет 10 месяцев

Сообщений: 1

Создавать темы 16-Май-2013 00:28

[Цитировать]

Сорокалетний девственник / 40-летний девственник / The 40 Year Old Virgin / Theatrical Cut, Fullscreen version
Страна: США
Жанр: комедия, мелодрама
Год выпуска: 2005
Продолжительность: 01:49:31
-
Перевод: Профессиональный (дублированный)
Cубтитры: нет
-
Режиссер: Джудд Апатоу / Judd Apatow
В ролях: Стив Карелл, Кэтрин Кинер, Пол Радд, Романи Малко, Сет Роген, Элизабет Бэнкс, Лесли Манн, Джейн Линч, Джерри Бедноб, Шелли Мэлил
-
Описание: 40-летний Энди Стицер добился в жизни многого. У него непыльная и хорошо оплачиваемая работенка в магазине по продаже электронной бытовой техники, хорошие друзья, а также милая квартирка, в которой находится гордость Энди — коллекция игрушечных героев и комиксов. Однако его жизнь лишена простых человеческих радостей, которые доступны большинству людей его возраста. Дело в том, что у Энди никогда не было секса. Его приятели и коллеги относятся к этому по-разному. Одни считают Энди чудаком, другие же лезут из кожи вон, чтобы помочь ему наверстать упущенное. Но все напрасно. Ничто не может заставить их друга расстаться с девственностью, пока он не встречает 40-летнюю Триш, мать троих детей. Друзья Энди начинают с нетерпением ждать «счастливого события», однако вскоре они с ужасом узнают, что новоявленная парочка решила построить свои взаимоотношения на полном отказе от секса.
-

-
Качество видео: SATRip (DVB) Спасибо Slim9174
Формат видео: AVI
Видео: 704x512 (1.38:1), 25 fps, XviD build 65 ~1770 kbps avg, 0.20 bit/pixel
Аудио: 48 kHz, MPEG Layer 3, 2 ch, ~128.00 kbps avg
Сравнение скриншотов
http://reactorr.org/viewtopic.php?t=1939602 http://screenshotcomparison.com/comparison/21174/picture:2 - другая версия фильма
http://reactorr.org/viewtopic.php?t=267307 - другая версия фильма + другой перевод
MediaInfo
General
Complete name : D:\Релизы\The 40 Year Old Virgin.Theatrical Cut.Fullscreen version.2005.RUS.SATRip.XviD.MPEG Audio.avi
Format : AVI
Format/Info : Audio Video Interleave
File size : 1.46 GiB
Duration : 1h 49mn
Overall bit rate : 1 908 Kbps
Writing application : VirtualDubMod 1.5.10.2 (build 2540/release)
Writing library : VirtualDubMod build 2540/release
Video
ID : 0
Format : MPEG-4 Visual
Format profile : Advanced Simple@L5
Format settings, BVOP : 1
Format settings, QPel : No
Format settings, GMC : No warppoints
Format settings, Matrix : Custom
Codec ID : XVID
Codec ID/Hint : XviD
Duration : 1h 49mn
Bit rate : 1 771 Kbps
Width : 704 pixels
Height : 512 pixels
Display aspect ratio : 1.375
Frame rate : 25.000 fps
Color space : YUV
Chroma subsampling : 4:2:0
Bit depth : 8 bits
Scan type : Progressive
Compression mode : Lossy
Bits/(Pixel*Frame) : 0.197
Stream size : 1.35 GiB (93%)
Writing library : XviD 65
Audio
ID : 1
Format : MPEG Audio
Format version : Version 1
Format profile : Layer 3
Mode : Joint stereo
Mode extension : MS Stereo
Codec ID : 55
Codec ID/Hint : MP3
Duration : 1h 49mn
Bit rate mode : Constant
Bit rate : 128 Kbps
Channel(s) : 2 channels
Sampling rate : 48.0 KHz
Compression mode : Lossy
Stream size : 100 MiB (7%)
Alignment : Aligned on interleaves
Interleave, duration : 40 ms (1.00 video frame)
Interleave, preload duration : 504 ms
Writing library : LAME3.99r
Encoding settings : -m j -V 4 -q 2 -lowpass 17 -b 128
Скриншоты
[reactorr.org].t25822.torrent
Торрент: Зарегистрирован [ 16-05-2013 00:20 ] · B55F65BED3F74A340778DB1555B0DF71E12E3032

Скачать .torrent

Скачать

15 KB

Статус: проверено
Скачан: 2 раз
Размер: 1,46 GB
terms.php
[Профиль] [ЛС]
Показать сообщения:    
Ответить на тему

Текущее время: 27-Апр 08:35

Часовой пояс: UTC + 3



Вы не можете начинать темы
Вы не можете отвечать на сообщения
Вы не можете редактировать свои сообщения
Вы не можете удалять свои сообщения
Вы не можете голосовать в опросах
Вы не можете прикреплять файлы к сообщениям
Вы можете скачивать файлы