Дагон / Dagon (Стюарт Гордон / Stuart Gordon) [2001, Испания, ужасы, фэнтези, триллер, детектив, HDRip] DVO (R5) + AVO (Сербин)

Ответить на тему
Статистика раздачи
Размер:  1,72 GB   |    Зарегистрирован:  3 года 11 месяцев   |    Скачан:  0 раз

Полного источника не было: Никогда

 
     
 
 
Автор Сообщение

????? ®

Пол: Не указан

Стаж: 5 лет 4 месяца

Сообщений: 1

Создавать темы 16-Май-2013 00:31

[Цитировать]

Дагон / Dagon

Страна: Испания, Castelao Producciones, Estudios Picasso, Fantastic Factory (Filmax)
Жанр: ужасы, фэнтези, триллер, детектив
Год выпуска: 2001
Продолжительность: 01:37:57-Перевод 1: Профессиональный (двухголосый, закадровый) R5
Перевод 2: Авторский одноголосый Ю.Сербин отдельно
Cубтитры: нет
Режиссер: Стюарт Гордон / Stuart Gordon-В ролях:
Эзра Годден, Франсиско Рабаль, Ракель Мероньо, Макарена Гомес, Брендан Прайс, Биргит Бофарулл, Уксия Бланко, Ферран Лаоз, Хоан Мингуэлл, Альфредо Вилья
-Описание:Выброшенные на берег небольшого острова ужасным штормом Пауль и Барбара нашли прибежище в заброшенной рыбацкой деревушке. Когда Барбара неожиданно исчезает среди уродливых и отталкивающих местных жителей, Паулю приходится столкнуться с пугающей действительностью одинокого городка. Пауль решается на жуткое расследование исчезновения Барбары в одиночку среди полного бездействия страшных обитателей деревушки. Но то, что обнаруживает Пауль в результате поисков вселяет страх и ужас и грозит опасностью всему миру.-Кинопоиск | Imdb | Сэмпл-Качество видео: HDRip
Формат видео: AVI
Видео: 720x400 (1.80:1), 23.976 fps, XviD build 65 ~1734 kbps avg, 0.25 bit/pixel
Аудио 1: 48 kHz, AC3 Dolby Digital, 3/2 (L,C,R,l,r) + LFE ch, ~384 kbps |Двухголосый закадровый, R5|
Аудио 2: 48 kHz, AC3 Dolby Digital, 3/2 (L,C,R,l,r) + LFE ch, ~384 kbps |Одноголосый закадровый, Ю.Сербин| отдельно
MediaInfo
General
Complete name                    : \Dagon.2001.2xRus\Dagon.2001.Rus.1400.avi
Format                           : AVI
Format/Info                      : Audio Video Interleave
File size                        : 1.46 GiB
Duration                         : 1h 37mn
Overall bit rate                 : 2 128 Kbps
Writing application              : VirtualDubMod 1.5.10.3 | www.virtualdub-fr.org || (build 2550/release)
Writing library                  : VirtualDubMod build 2550/release
[br]
Video
ID                               : 0
Format                           : MPEG-4 Visual
Format profile                   : Advanced Simple@L5
Format settings, BVOP            : 1
Format settings, QPel            : No
Format settings, GMC             : No warppoints
Format settings, Matrix          : Custom
Codec ID                         : XVID
Codec ID/Hint                    : XviD
Duration                         : 1h 37mn
Bit rate                         : 1 734 Kbps
Width                            : 720 pixels
Height                           : 400 pixels
Display aspect ratio             : 16:9
Frame rate                       : 23.976 fps
Color space                      : YUV
Chroma subsampling               : 4:2:0
Bit depth                        : 8 bits
Scan type                        : Progressive
Compression mode                 : Lossy
Bits/(Pixel*Frame)               : 0.251
Stream size                      : 1.19 GiB (82%)
Writing library                  : XviD 65
[br]
Audio
ID                               : 1
Format                           : AC-3
Format/Info                      : Audio Coding 3
Mode extension                   : CM (complete main)
Codec ID                         : 2000
Duration                         : 1h 37mn
Bit rate mode                    : Constant
Bit rate                         : 384 Kbps
Channel(s)                       : 6 channels
Channel positions                : Front: L C R, Side: L R, LFE
Sampling rate                    : 48.0 KHz
Bit depth                        : 16 bits
Compression mode                 : Lossy
Stream size                      : 269 MiB (18%)
Alignment                        : Split accross interleaves
Interleave, duration             : 42 ms (1.00 video frame)
Interleave, preload duration     : 500 ms
[br]
General
Complete name                    : \Dagon.2001.2xRus\Dagon.2001.Rus.1400_Serbin.ac3
Format                           : AC-3
Format/Info                      : Audio Coding 3
File size                        : 269 MiB
Duration                         : 1h 37mn
Overall bit rate                 : 384 Kbps
[br]
Audio
Format                           : AC-3
Format/Info                      : Audio Coding 3
Mode extension                   : CM (complete main)
Duration                         : 1h 37mn
Bit rate mode                    : Constant
Bit rate                         : 384 Kbps
Channel(s)                       : 6 channels
Channel positions                : Front: L C R, Side: L R, LFE
Sampling rate                    : 48.0 KHz
Bit depth                        : 16 bits
Compression mode                 : Lossy
Stream size                      : 269 MiB (100%)
[/spoiler]
Скриншоты
[reactorr.org].t25958.torrent
Торрент: Зарегистрирован [ 16-05-2013 00:20 ] · E2AE1EE4BCCDEB75AA3CE5F3B53298C58F6AA383

Скачать .torrent

Скачать

18 KB

Статус: проверено
Скачан: 0 раз
Размер: 1,72 GB
terms.php
[Профиль] [ЛС]
Показать сообщения:    
Ответить на тему

Текущее время: 27-Апр 18:06

Часовой пояс: UTC + 3



Вы не можете начинать темы
Вы не можете отвечать на сообщения
Вы не можете редактировать свои сообщения
Вы не можете удалять свои сообщения
Вы не можете голосовать в опросах
Вы не можете прикреплять файлы к сообщениям
Вы можете скачивать файлы