Между небом и землей / Just Like Heaven (Марк Уотерс / Mark Waters) [2005, США, Фэнтези, мелодрама, комедия, WEB-DLRip] Dub

Ответить на тему
Статистика раздачи
Размер:  1,46 GB   |    Зарегистрирован:  3 года 9 месяцев   |    Скачан:  1 раз
Сидов:  13  [  0 KB/s  ]   Личеров:  3  [  0 KB/s  ]   Подробная статистика пиров
 
     
 
 
Автор Сообщение

mil.ledy ®

Пол: Не указан

Стаж: 7 лет 7 месяцев

Сообщений: 2

Создавать темы 18-Июн-2013 01:40

[Цитировать]

Между небом и землей / Just Like Heaven
«Только любви все под силу.»
- Год выпуска: 2005
Выпущено: США / DreamWorks SKG, MacDonald/Parkes Productions
Жанр: фэнтези, мелодрама, комедия
Продолжительность: 01:34:52
Перевод: Профессиональный (полное дублирование)
Cубтитры: нет-Режиссер:
Марк Уотерс / Mark Waters-В ролях:
Риз Уизерспун (Elizabeth), Марк Руффало (David), Донал Лог (Jack), Дина Спайби (Abby), Бен Шенкман (Brett), Джон Хидер (Darryl), Ивана Миличевич (Katrina), Розалинд Чао (Fran), Кэролайн Аарон (Grace), Рон Кэнада (Dr. Walsh), Уилли Гарсон (Maitre D'), Гэбриэлль Мэйд (Nurse Maria), Уильям Капло (Nurse Bill)-Описание:
Вселившись в арендованную квартиру в Сан-Франциско и начав наводить там порядок, Дэвид неожиданно встречает в своем новом жилище привлекательную молодую женщину Элизабет, которая уверяет его, что именно она является хозяйкой этих апартаментов. Когда же Дэвид начинает склоняться к мысли, что произошло какое-то недоразумение, Элизабет исчезает так же внезапно и загадочно, как и появилась. Замена замков не останавливает красотку: ее таинственные появления и исчезновения продолжают вносить сумятицу в жизнь Дэвида. Убедившись в том, что она привидение, Дэвид старается помочь ей навсегда остаться в потустороннем мире. Однако, открыв в себе невероятные возможности — например, способность проходить сквозь стены, — Элизабет начинает убеждать себя в том, что она каким-то образом еще жива и поэтому не собирается перебираться на тот свет насовсем. По мере того как оба пытаются выяснить истинную причину происходящего, Дэвид и Элизабет влюбляются друг в друга. Однако перспективы их совместной жизни становятся все более и более призрачными…-Релиз группы | IMDB | КиноПоиск |-Качество: WEB-DLRip [Just.Like.Heaven.2005.720p.WEB-DL.Rus.Eng.HDCLUB]
Формат: AVI
Видео: 720x400 (1.80:1), 23.976 fps, XviD build 73 ~1804 kbps avg, 0.26 bit/pixel
Аудио: 48 kHz, AC3 Dolby Digital, 3/2 (L,C,R,l,r) + LFE ch, ~384.00 kbps avg
-
Скриншоты
MediaInfo
General
Complete name                            : D:\Mezhdu_nebom_i_zemlyoi_2005_WEB_DLRip_by_Dalemake.avi
Format                                   : AVI
Format/Info                              : Audio Video Interleave
File size                                : 1.46 GiB
Duration                                 : 1h 34mn
Overall bit rate                         : 2 197 Kbps
Writing application                      : VirtualDubMod 1.5.10.3 | www.virtualdub-fr.org || (build 2550/release)
Writing library                          : VirtualDubMod build 2550/release
[br]
Video
ID                                       : 0
Format                                   : MPEG-4 Visual
Format profile                           : Advanced Simple@L5
Format settings, BVOP                    : 1
Format settings, QPel                    : No
Format settings, GMC                     : No warppoints
Format settings, Matrix                  : Custom
Codec ID                                 : XVID
Codec ID/Hint                            : XviD
Duration                                 : 1h 34mn
Bit rate                                 : 1 804 Kbps
Width                                    : 720 pixels
Height                                   : 400 pixels
Display aspect ratio                     : 16:9
Frame rate                               : 23.976 fps
Color space                              : YUV
Chroma subsampling                       : 4:2:0
Bit depth                                : 8 bits
Scan type                                : Progressive
Compression mode                         : Lossy
Bits/(Pixel*Frame)                       : 0.261
Stream size                              : 1.20 GiB (82%)
Writing library                          : XviD 73
[br]
Audio
ID                                       : 1
Format                                   : AC-3
Format/Info                              : Audio Coding 3
Mode extension                           : CM (complete main)
Format settings, Endianness              : Big
Codec ID                                 : 2000
Duration                                 : 1h 34mn
Bit rate mode                            : Constant
Bit rate                                 : 384 Kbps
Channel(s)                               : 6 channels
Channel positions                        : Front: L C R, Side: L R, LFE
Sampling rate                            : 48.0 KHz
Bit depth                                : 16 bits
Compression mode                         : Lossy
Stream size                              : 260 MiB (17%)
Alignment                                : Split accross interleaves
Interleave, duration                     : 42 ms (1.00 video frame)
Interleave, preload duration             : 500 ms
[/spoiler]
-
Исходный WEB-DL куплен в рамках сервиса "Копилка".
-
[reactorr.org].t28862.torrent
Торрент: Зарегистрирован [ 18-06-2013 01:40 ] · 03004D0E6B160EBA7A93395EA781B20687248FA3

Скачать .torrent

Скачать

15 KB

Статус: проверено
Скачан: 1 раз
Размер: 1,46 GB
terms.php
[Профиль] [ЛС]
Показать сообщения:    
Ответить на тему

Текущее время: 24-Мар 13:18

Часовой пояс: UTC + 3



Вы не можете начинать темы
Вы не можете отвечать на сообщения
Вы не можете редактировать свои сообщения
Вы не можете удалять свои сообщения
Вы не можете голосовать в опросах
Вы не можете прикреплять файлы к сообщениям
Вы можете скачивать файлы