Красные и черные / Red And Black / Gui gan bu (Андрю Кам Ён Ва / Andrew Kam Yeung Wah) [1991, Гонконг, мистика, драма, DVDRip] VO (Jet)

Ответить на тему
Статистика раздачи
Размер:  1,46 GB   |    Зарегистрирован:  3 года 11 месяцев   |    Скачан:  0 раз
Сидов:  6  [  0 KB/s  ]   Личеров:  1  [  0 KB/s  ]   Подробная статистика пиров
 
     
 
 
Автор Сообщение

??????? ??? ®

Пол: Не указан

Стаж: 6 лет 5 месяцев

Сообщений: 1

Создавать темы 03-Июл-2013 01:50

[Цитировать]

Красные и черные / Red And Black / Gui gan bu
Страна: Гонконг
Жанр: мистика, драма
Год выпуска: 1991
Продолжительность: 01:33:20-Перевод: Виктор Береговых (Jet)
Перевод: Exorcist of fire
Редактура: Sinner
Постер: Public Enemy (((
Рип: Public Enemy (((
Cубтитры: нет
Оригинальная аудиодорожка: нет-Режиссер: Андрю Кам Ён Ва / Andrew Kam Yeung Wah-В ролях: Лам Чын Ин, Тони Люн Ка Фай, Джой Вон, У Ма, Лау Кон, Джон Чун-Описание: В небольшую китайскую деревеньку вторгается японское войско, но оно не подозревает, что в деревне бродит проклятье, демон, который вселяется в тела людей. Во время сражения в одного из японских солдат вселяется тот самый демон, который начинает убивать всех подряд, чтобы остановить демона, один из жителей деревни приносит себя в жертву.... Спустя два десятилетия демон вновь возвращается и начинает кровопролитие, смогут ли в этот раз жители остановить это проклятье...-Релиз групп - -Качество видео: DVDRip (DVD5)
Формат видео: AVI
Видео: XviD, 720x432 (1.67:1), 23.976 fps, 2036 kbps avg, 0.27 bit/pixel
Аудио: Русский MPEG layer 3, 2 ch, 192kbps
-
MediaInfo
Format : AVI
Format/Info : Audio Video Interleave
File size : 1.46 GiB
Duration : 1h 33mn
Overall bit rate : 2 238 Kbps
Writing application : VirtualDubMod 1.5.10.3 | www.virtualdub-fr.org || (build 2550/release)
Writing library : VirtualDubMod build 2550/release
Video
ID : 0
Format : MPEG-4 Visual
Format profile : Advanced Simple@L5
Format settings, BVOP : 1
Format settings, QPel : No
Format settings, GMC : No warppoints
Format settings, Matrix : Custom
Codec ID : XVID
Codec ID/Hint : XviD
Duration : 1h 33mn
Bit rate : 2 037 Kbps
Width : 720 pixels
Height : 432 pixels
Display aspect ratio : 1.667
Frame rate : 23.976 fps
Color space : YUV
Chroma subsampling : 4:2:0
Bit depth : 8 bits
Scan type : Progressive
Compression mode : Lossy
Bits/(Pixel*Frame) : 0.273
Stream size : 1.33 GiB (91%)
Writing library : XviD 73
Audio
ID : 1
Format : MPEG Audio
Format version : Version 1
Format profile : Layer 3
Codec ID : 55
Codec ID/Hint : MP3
Duration : 1h 33mn
Bit rate mode : Constant
Bit rate : 192 Kbps
Channel(s) : 2 channels
Sampling rate : 48.0 KHz
Compression mode : Lossy
Stream size : 128 MiB (9%)
Alignment : Aligned on interleaves
Interleave, duration : 42 ms (1.00 video frame)
Interleave, preload duration : 504 ms
Скриншот с названием
Скриншоты
[reactorr.org].t29592.torrent
Торрент: Зарегистрирован [ 03-07-2013 01:50 ] · 1192D2135F836D42B3ABA6213BD8AD80B39B3368

Скачать .torrent

Скачать

15 KB

Статус: проверено
Скачан: 0 раз
Размер: 1,46 GB
terms.php
[Профиль] [ЛС]
Показать сообщения:    
Ответить на тему

Текущее время: 29-Июн 04:58

Часовой пояс: UTC + 3



Вы не можете начинать темы
Вы не можете отвечать на сообщения
Вы не можете редактировать свои сообщения
Вы не можете удалять свои сообщения
Вы не можете голосовать в опросах
Вы не можете прикреплять файлы к сообщениям
Вы можете скачивать файлы