Лиса Алиса / Lisa Alisa (Жан-Мишель Карре) [2001 г., Драмы, Криминальные, Отечественные, DVDRip]

Ответить на тему
Статистика раздачи
Размер:  701 MB   |    Зарегистрирован:  4 года 3 месяца   |    Скачан:  0 раз
Сидов:  6  [  0 KB/s  ]   Личеров:  1  [  0 KB/s  ]   Подробная статистика пиров
 
     
 
 
Автор Сообщение

surok ®

Пол: Не указан

Создавать темы 14-Июл-2013 10:15

[Цитировать]

Лиса Алиса / Lisa Alisa
Год выпуска: 2001 год
Страна: Россия, Франция
Жанр: Драмы, Криминальные, Отечественные
Продолжительность: 01:24:01
Перевод: Не требуется
Режиссер: Жан-Мишель Карре
Сценарий: Виктор Мережко
Премьера в мире: 2003


В ролях: Ольга Сидорова, Алексей Черных, Дарья Волга, Сергей Мартынов, Ирина Алферова, Татьяна Кравченко, Александр Вдовин
Описание: Алиса, современная московская девушка, любящая хорошую компанию и ночную ресторанную тусовку, знакомится с атташе по культуре посольства Франции. Возникшая увлеченность перерастает в бурную страсть. Несколько дней и ночей они проводят вместе, но счастье заканчивается, когда из Парижа приезжают жена и дочь дипломата. Поняв, что ее бросили, Алиса решает мстить и делает это со всей изощренностью обманутой. Но месть может возвратиться как бумеранг.
Медиа инфо:
Общее
Полное имя : G:\Загрузка\Lisa_Alisa_2003.DVDRip.avi
Формат : AVI
Формат/Информация : Audio Video Interleave
Размер файла : 701 Мбайт
Продолжительность : 1 ч. 24 м.
Режим общего битрейта : Переменный
Общий поток : 1166 Кбит/сек
Программа кодирования : VirtualDubMod 1.5.4.1 (build 2066/release)
Библиотека кодирования : VirtualDubMod build 2066/release
Видео
Идентификатор : 0
Формат : MPEG-4 Visual
Параметр BVOP формата : 1
Параметр QPel формата : Нет
Параметр GMC формата : Без точки перехода
Параметр матрицы формата : Default (H.263)
Режим смешивания : Сжатый битовый поток
Идентификатор кодека : DIVX
Идентификатор кодека/Информация : Project Mayo
Идентификатор кодека/Подсказка : DivX 4
Продолжительность : 1 ч. 24 м.
Битрейт : 1055 Кбит/сек
Ширина : 608 пикселей
Высота : 352 пикселя
Соотношение сторон : 1,727
Частота кадров : 25,000 кадров/сек
Цветовое пространство : YUV
Субдискретизация насыщенности : 4:2:0
Битовая глубина : 8 бит
Тип развёртки : Прогрессивная
Метод сжатия : С потерями
Бит/(Пиксели*Кадры) : 0.197
Размер потока : 634 Мбайт (91%)
Библиотека кодирования : DivX 5.0.5 (UTC 2003-04-24)
Аудио
Идентификатор : 1
Формат : MPEG Audio
Версия формата : Version 1
Профиль формата : Layer 3
Режим : Joint stereo
Расширение режима : MS Stereo
Идентификатор кодека : 55
Идентификатор кодека/Подсказка : MP3
Продолжительность : 1 ч. 24 м.
Вид битрейта : Переменный
Битрейт : 96,0 Кбит/сек
Каналы : 2 канала
Частота : 32,0 КГц
Метод сжатия : С потерями
Размер потока : 60,5 Мбайт (9%)
Выравнивание : Соединение по промежуткам
Продолжительность промежутка : 36 мс. (0,90 видеокадр)
Время предзагрузки промежутка : 503 мс.
Библиотека кодирования : LAME3.92
Настройки программы : -m j -V 4 -q 2 -lowpass 15.3 --abr 96
Качество: DVDRip
Формат: AVI
Видео кодек: DivX
Аудио кодек: MP3
Видео: 608x352 (16:9), DivX 4, 25.000 fps, 1 055 Kbps (0.197 bit/pixel)
Аудио: MP3, 32.0 KHz, 2 ch, 96.0 Kbps, VBR
Скриншоты

[reactorr.org].t30242.torrent
Торрент: Зарегистрирован [ 14-07-2013 10:25 ] · 7EAAC0EC3D4DE8E05849D99B202223F3E7B4F046

Скачать .torrent

Скачать

14 KB

Статус: проверено
Скачан: 0 раз
Размер: 701 MB
terms.php
 
Показать сообщения:    
Ответить на тему

Текущее время: 21-Окт 18:55

Часовой пояс: UTC + 3



Вы не можете начинать темы
Вы не можете отвечать на сообщения
Вы не можете редактировать свои сообщения
Вы не можете удалять свои сообщения
Вы не можете голосовать в опросах
Вы не можете прикреплять файлы к сообщениям
Вы можете скачивать файлы