Горько! (Жора Крыжовников, Комедия, Приключения, 2013) DVDRip

Ответить на тему
Статистика раздачи
Размер:  1.37 GB   |    Зарегистрирован:  3 года 1 месяц   |    Скачан:  14 раз
Сидов:  3297  [  0 KB/s  ]   Личеров:  132  [  0 KB/s  ]   Подробная статистика пиров
 
     
 
 
Автор
Сообщение

-Горько! (2013) DVDRip- Год выпуска: 2013
Производство: Россия / Базелевс Продакшн, Lunapark
Жанр: Комедия, Приключения
Перевод: Не требуется
Язык: Русский
Субтитры: Отсутствуют
Дата мировой премьеры: 25 октября 2013
Дата российской премьеры: 24 октября 2013, «Bazelevs Distribution»
Дата выхода DVD релиза: 5 декабря 2013, «Флагман-Трейд»
Режиссер: Жора Крыжовников
Продюсер: Илья Бурец, Дмитрий Нелидов, Сергей Светлаков
Актеры: Сергей Светлаков, Ян Цапник, Юлия Александрова, Егор Корешков, Сергей Лавыгин, Данила Якушев, Валентина Мазунина, Александр Паль, Юлия Стадник, Елена Валюшкина
Описание фильма:
Прогрессивные и талантливые Наташа и Рома мечтают о европейской свадьбе на берегу моря… но у Наташиного отчима заготовлен другой сценарий. Грубый чиновник городской администрации рассматривает торжество как трамплин для собственной карьеры и стремится устроить все «как надо». Молодых ждет незабываемый вечер в ресторане «Золотой» с полным набором занудных обрядов. Не в силах бороться, ребята решают провести свадьбу своей мечты в секрете от консервативных родственников. Но по нелепой случайности оба торжества сливаются воедино.

Продолжительность: 01:35:56
Качество видео: DVDRip
Видеокодек: Xvid
Битрейт видео: ~1579 Kbps
Размер кадра: 720x400
Аудиокодек: AC3 5.1
Битрейт аудио: 448 Kbps 48000 Hz
Сэмпл: Скачать

MediaInfo:

Код:
Общее
Полное имя                               : Gorko.2013.O.DVDRip.1400MB.nnm-club.avi
Формат                                   : AVI
Формат/Информация                        : Audio Video Interleave
Размер файла                             : 1,37 Гбайт
Продолжительность                        : 1 ч. 35 м.
Общий поток                              : 2040 Кбит/сек
Программа кодирования                    : VirtualDubMod 1.5.10.2 (build 2540/release)
Библиотека кодирования                   : VirtualDubMod build 2540/release
Видео
Идентификатор                            : 0
Формат                                   : MPEG-4 Visual
Профиль формата                          : Advanced Simple@L5
Параметр BVOP формата                    : 2
Параметр QPel формата                    : Нет
Параметр GMC формата                     : Без точки перехода
Параметр матрицы формата                 : Выборочная
Идентификатор кодека                     : XVID
Идентификатор кодека/Подсказка           : XviD
Продолжительность                        : 1 ч. 35 м.
Битрейт                                  : 1580 Кбит/сек
Ширина                                   : 720 пикселей
Высота                                   : 400 пикселей
Соотношение сторон                       : 16:9
Частота кадров                           : 29,970 кадров/сек
Цветовое пространство                    : YUV
Субдискретизация насыщенности            : 4:2:0
Битовая глубина                          : 8 бит
Тип развёртки                            : Прогрессивная
Метод сжатия                             : С потерями
Бит/(Пиксели*Кадры)                      : 0.183
Размер потока                            : 1,06 Гбайт (77%)
Библиотека кодирования                   : XviD 1.2.1 (UTC 2008-12-04)
Аудио
Идентификатор                            : 1
Формат                                   : AC-3
Формат/Информация                        : Audio Coding 3
Расширение режима                        : CM (complete main)
Параметр Endianness формата              : Big
Идентификатор кодека                     : 2000
Продолжительность                        : 1 ч. 35 м.
Вид битрейта                             : Постоянный
Битрейт                                  : 448 Кбит/сек
Каналы                                   : 6 каналов
Расположение каналов                     : Front: L C R, Side: L R, LFE
Частота                                  : 48,0 КГц
Битовая глубина                          : 16 бит
Метод сжатия                             : С потерями
Размер потока                            : 307 Мбайт (22%)
Выравнивание                             : Разделение по промежуткам
Продолжительность промежутка             : 33  мс. (1,00 видеокадр)
Время предзагрузки промежутка            : 500  мс.
Скриншоты:
--
 
Показать сообщения:    
Ответить на тему