Девушка мечты / Dream Girl (Прамод Чакраворти / Pramod Chakravorty) [1977, Индия, Мелодрама, DVDRip] Dub (Zee TV)

Ответить на тему
Статистика раздачи
Размер:  1.46 GB   |    Зарегистрирован:  2 года 7 месяцев   |    Скачан:  0 раз

Полного источника не было: 2 года 7 месяцев

 
     
 
 
 
Автор
Сообщение

Девушка мечты / Dream Girl
Страна: Индия
Жанр: Мелодрама
Год выпуска: 1977
Продолжительность: 02:37:15
Перевод: Профессиональный (дублированный) Zee TV
Cубтитры: русские (только на тексты песен)
Режиссер: Прамод Чакраворти / Pramod Chakravorty
В ролях: Дхармендра, Хема Малини, Ашок Кумар, Прем Чопра, Лалита Павар, Дина Патхак, Алка, Пинчу Капур, Пунам Синха
Описание: Богатый плэйбой Анупам Верма любит флиртовать и крутить романы с девушками. Однажды на обочине дороги Анупам купил у уличного торговца портрет прекрасной девушки, ставшей для него идеалом девушки, девушкой-мечтой. В один прекрасный день Анупам случайно встретился с девушкой с портрета и стал взволнованно пытаться рассказать о своих чувствах. Но к большому удивлению, девушка не просто сбежала от него, а еще и украла его же деньги. Анупам поклялся любой ценой найти девушку и начинает свои поиски с уличного торговца. Он не догадывается, что получив ответы на все свои вопросы, он может потерять любовь, положение в обществе, богатство...
Доп. информация: Исходник DVD-9 (СПАСИБО! colyamaltsev)
Перевод субтитров: innnna, Vasantsena (Спасибо!)
Сэмпл: http://multi-up.com/970054/
Качество видео: DVDRip
Формат видео: AVI
Видео: XviD build 50, 640x480 (1.33:1), 29.970 fps, 1129 kbps avg
Аудио: AC3 Dolby Digital, 48 kHz, 2/0 (L,R) ch, 192.00 kbps avg

MediaInfo

General
Complete name : D:\Devushka.mechty.1977.XviD.DVDRip-Dego\Devushka.mechty.1977.XviD.DVDRip-Dego.avi
Format : AVI
Format/Info : Audio Video Interleave
File size : 1.46 GiB
Duration : 2h 37mn
Overall bit rate : 1 333 Kbps
Writing application : VirtualDubMod 1.5.10.2 (build 2540/release)
Writing library : VirtualDubMod build 2540/release
Video
ID : 0
Format : MPEG-4 Visual
Format profile : AdvancedSimple@L5
Format settings, BVOP : Yes
Format settings, QPel : No
Format settings, GMC : No warppoints
Format settings, Matrix : Default (MPEG)
Codec ID : XVID
Codec ID/Hint : XviD
Duration : 2h 37mn
Bit rate : 1 129 Kbps
Width : 640 pixels
Height : 480 pixels
Display aspect ratio : 4/3
Frame rate : 29.970 fps
Resolution : 24 bits
Colorimetry : 4:2:0
Scan type : Progressive
Bits/(Pixel*Frame) : 0.123
Stream size : 1.24 GiB (85%)
Writing library : XviD 1.2.1 (UTC 2008-12-04)
Audio
ID : 1
Format : AC-3
Format/Info : Audio Coding 3
Codec ID : 2000
Duration : 2h 37mn
Bit rate mode : Constant
Bit rate : 192 Kbps
Channel(s) : 2 channels
Channel positions : L R
Sampling rate : 48.0 KHz
Stream size : 216 MiB (14%)
Alignment : Split accross interleaves
Interleave, duration : 33 ms (1.00 video frame)
Interleave, preload duration : 500 ms

Скриншоты

 
Показать сообщения:    
Ответить на тему