Любовный треугольник / Pati Patni Aur Tawaif (Раджкумар Коли / Rajkumar Kohli) [1990, Индия, Драма, DVDRip] VO

Ответить на тему
Статистика раздачи
Размер:  1.09 GB   |    Зарегистрирован:  2 года 7 месяцев   |    Скачан:  1 раз

Полного источника не было: 11 месяцев 21 день

 
     
 
 
 
Автор
Сообщение

Любовный треугольник / Pati Patni Aur Tawaif
Страна: Индия
Жанр: Драма
Год выпуска: 1990
Продолжительность: 02:36:28
Перевод: Одноголосый закадровый
Cубтитры: нет
Режиссер: Раджкумар Коли / Rajkumar Kohli
В ролях: Салма Ага, Харбанс Даршан, Бирбал, Митхун Чакраборти, Соника Гилл, Гюльшан, Аруна Ирани, Джагдип, Джанкидас, Амджад Кхан
Описание: Виджай - известный актер и режиссер, живет со своей женой Шанти и сыном.
Любовь и согласие царит в их доме, пока в их жизнь не врывается самовлюбленная и наглая куртизанка Гаури...
Доп. информация: Релиз
Автор рипа: Shizik (Спасибо!)
Сведение звука - Алёна (Спасибо!)
Сэмпл: http://multi-up.com/968924
Качество видео: DVDRip
Формат видео: AVI
Видео: XviD build 50, 512x384 (1.33:1), 29.970 fps, 795 kbps avg
Аудио: AC3 Dolby Digital, 48 kHz, 2/0 (L,R) ch, 192.00 kbps avg

MediaInfo

General
Complete name : D:\Lybovniy.treugolnik.1990.DVDRip.avi
Format : AVI
Format/Info : Audio Video Interleave
File size : 1.09 GiB
Duration : 2h 36mn
Overall bit rate : 999 Kbps
Writing application : VirtualDubMod 1.5.10.2 (build 2540/release)
Writing library : VirtualDub build 30009/release
Video
ID : 0
Format : MPEG-4 Visual
Format profile : AdvancedSimple@L5
Format settings, BVOP : Yes
Format settings, QPel : No
Format settings, GMC : No warppoints
Format settings, Matrix : Custom
Codec ID : XVID
Codec ID/Hint : XviD
Duration : 2h 36mn
Bit rate : 795 Kbps
Width : 512 pixels
Height : 384 pixels
Display aspect ratio : 4/3
Frame rate : 29.970 fps
Resolution : 24 bits
Colorimetry : 4:2:0
Scan type : Progressive
Bits/(Pixel*Frame) : 0.135
Stream size : 890 MiB (80%)
Writing library : XviD 1.2.1 (UTC 2008-12-04)
Audio
ID : 1
Format : AC-3
Format/Info : Audio Coding 3
Codec ID : 2000
Duration : 2h 36mn
Bit rate mode : Constant
Bit rate : 192 Kbps
Channel(s) : 2 channels
Channel positions : L R
Sampling rate : 48.0 KHz
Stream size : 215 MiB (19%)
Alignment : Split accross interleaves
Interleave, duration : 33 ms (1.00 video frame)
Interleave, preload duration : 500 ms

Скриншоты

 
Показать сообщения:    
Ответить на тему