Страж / Дух-хранитель / The Guardian (Уильям Фридкин / William Friedkin) [1990, США, ужасы, триллер, драма, детектив, DVDRip] AVO (А. Михалев)

Ответить на тему
Статистика раздачи
Размер:  1.46 GB   |    Зарегистрирован:  2 года 7 месяцев   |    Скачан:  1 раз
Сидов:  4  [  0 KB/s  ]   Подробная статистика пиров
 
     
 
 
Автор
Сообщение

-Страж / Дух-хранительThe Guardian- -Страна: США
Жанр: Ужасы, триллер, драма, детектив
Год выпуска: 1990
Продолжительность: 01:32:26-Перевод: Авторский (одноголосый закадровый) А. Михалев
Cубтитры: нет
Оригинальная аудиодорожка: нет-Режиссер: Уильям Фридкин / William Friedkin-В ролях: Дженни Сигроув, Дуайр Браун, Кэри Лоуэлл, Брэд Холл, Мигель Феррер, Наталия Ногулич, Памела Бралл, Гэри Суонсон, Джек Дэвид Уолкер, Вилли Парсонс-Описание: Молодая супружеская пара переезжает жить в Лос-Анджелес, в просторный ультрасовременный дом. Скоро и них рождается очаровательный мальчик, а по сему необходимо найти для крошечного сына подходящую няню. Выбор супругов падает на красивую молодую женщину по имени Камилла.
Но беспечные родители даже в самом жутком сне не могли представить, к какому ужасу приведёт их опрометчивый выбор. Вместе с Камиллой в доме появляется зло: зло древнее и безжалостное; зло, которое питается детьми…-Качество видео: DVDRip
Формат видео: AVI-Видео: 640х480 (4:3), XviD build 73 ~ 1 870 kbps, 23.976 fps, 0.25 bit/pixel
Аудио: 48 kHz, AC3 Dolby Digital, 3/2 (L,C,R,l,r) + LFE ch, ~384 kbps (А. Михалев)-Цитата:
Звуковая дорожка с переводом Алексея Михалева появилась благодаря budulai-8.
-

MediaInfo

General
Complete name : D:\Temp\The Guardian.avi
Format : AVI
Format/Info : Audio Video Interleave
File size : 1.46 GiB
Duration : 1h 32mn
Overall bit rate : 1 846 Kbps
Writing application : VirtualDubMod 1.5.10.3 | www.virtualdub-fr.org || (build 2550/release)
Writing library : VirtualDubMod build 2550/release
Video
ID : 0
Format : MPEG-4 Visual
Format profile : Advanced Simple@L5
Format settings, BVOP : 1
Format settings, QPel : No
Format settings, GMC : No warppoints
Format settings, Matrix : Custom
Codec ID : XVID
Codec ID/Hint : XviD
Duration : 1h 32mn
Bit rate : 1 870 Kbps
Width : 640 pixels
Height : 480 pixels
Display aspect ratio : 4:3
Frame rate : 23.976 fps
Color space : YUV
Chroma subsampling : 4:2:0
Bit depth : 8 bits
Scan type : Progressive
Compression mode : Lossy
Bits/(Pixel*Frame) : 0.254
Stream size : 1.17 GiB (80%)
Writing library : XviD 73
Audio
ID : 1
Format : AC-3
Format/Info : Audio Coding 3
Mode extension : CM (complete main)
Format settings, Endianness : Big
Codec ID : 2000
Duration : 1h 32mn
Source duration : 1h 32mn
Bit rate mode : Constant
Bit rate : 384 Kbps
Channel count : 6 channels
Channel positions : Front: L C R, Side: L R, LFE
Sampling rate : 48.0 KHz
Bit depth : 16 bits
Compression mode : Lossy
Stream size : 297 MiB (20%)
Alignment : Split accross interleaves
Interleave, duration : 51 ms (1.22 video frame)
Interleave, preload duration : 500 ms

Скриншот с названием фильма

Скриншоты

-
 
Показать сообщения:    
Ответить на тему