Слепой закон / Andhaa Kanoon (Рама Рао Татинери / Rama Rao Tatineni) [1983, Индия, Боевик, DVDRip] MVO (Формат АВ)

Ответить на тему
Статистика раздачи
Размер:  1.46 GB   |    Зарегистрирован:  2 года 6 месяцев   |    Скачан:  1 раз
Сидов:  4  [  0 KB/s  ]   Подробная статистика пиров
 
     
 
 
Автор
Сообщение

Слепой закон / Andhaa Kanoon
Страна: Индия
Жанр: Боевик
Год выпуска: 1983
Продолжительность: 02:41:43
Перевод: Профессиональный (многоголосый закадровый) Формат АВ
Cубтитры: нет
Режиссер: Рама Рао Татинери / Rama Rao Tatineni
В ролях: Амитабх Баччан, Раджникант, Хема Малини, Рина Рой, Пран, Прем Чопра, Дэнни Дензонгпа, Амриш Пури, Мадан Пури, Ом Шивпури
Описание: Виджай Кумар — молодой человек с трагическим прошлым. В детстве он был свидетелем убийства своего отца и насилия над сестрой. Отомстить за семью стало целью жизни Виджая. Его сестра Дурга служит в полиции и не может позволить, чтобы он вершил правосудие своими руками. Джан Нисар выходит из тюрьмы, отбыв срок за убийство контрабандиста. Он обнаруживает, что человек, за убийство которого он был осужден, на самом деле жив и здоров. Поиски справедливости сталкивают судьбы Джана, Виджая и Дурги.
Доп. информация: Исходник DVD-5 (СПАСИБО! Gahan Dave)
Сэмпл: http://multi-up.com/985938
Качество видео: DVDRip
Формат видео: AVI
Видео: XviD build 50, 640x480 (1.33:1), 29.970 fps, 1156 kbps avg
Аудио: MPEG Layer 3, 48 kHz, 2/0 (L,R) ch, 128.00 kbps avg

MediaInfo

General
Complete name : D:\Slepoj.zakon.1983.XviD.DVDRip-Dego.avi
Format : AVI
Format/Info : Audio Video Interleave
File size : 1.46 GiB
Duration : 2h 41mn
Overall bit rate : 1 296 Kbps
Writing application : VirtualDubMod 1.5.10.2 (build 2540/release)
Writing library : VirtualDubMod build 2540/release
Video
ID : 0
Format : MPEG-4 Visual
Format profile : AdvancedSimple@L5
Format settings, BVOP : Yes
Format settings, QPel : No
Format settings, GMC : No warppoints
Format settings, Matrix : Custom
Codec ID : XVID
Codec ID/Hint : XviD
Duration : 2h 41mn
Bit rate : 1 156 Kbps
Width : 640 pixels
Height : 480 pixels
Display aspect ratio : 4/3
Frame rate : 29.970 fps
Resolution : 24 bits
Colorimetry : 4:2:0
Scan type : Progressive
Bits/(Pixel*Frame) : 0.126
Stream size : 1.31 GiB (89%)
Writing library : XviD 1.2.1 (UTC 2008-12-04)
Audio
ID : 1
Format : MPEG Audio
Format version : Version 1
Format profile : Layer 3
Codec ID : 55
Codec ID/Hint : MP3
Duration : 2h 41mn
Bit rate mode : Constant
Bit rate : 128 Kbps
Channel(s) : 2 channels
Sampling rate : 48.0 KHz
Resolution : 16 bits
Stream size : 148 MiB (10%)
Alignment : Aligned on interleaves
Interleave, duration : 33 ms (1.00 video frame)
Interleave, preload duration : 504 ms
Writing library : LAME3.98r
Encoding settings : -m s -V 4 -q 2 -lowpass 17 -b 128

Скриншоты

 
Показать сообщения:    
Ответить на тему