Акт мести / Act of Vengeance (Джон МакКензи / John Mackenzie) [1986 г., США, драма, криминал, биография, SATRip] AVO (Гаврилов)

Ответить на тему
Статистика раздачи
Размер:  714 MB   |    Зарегистрирован:  2 года 8 месяцев   |    Скачан:  0 раз
Сидов:  6  [  0 KB/s  ]   Личеров:  2  [  0 KB/s  ]   Подробная статистика пиров
 
     
 
 
Автор Сообщение

breakss ®

Пол: Не указан

Стаж: 7 лет 1 месяц

Сообщений: 1

Создавать темы 14-Июл-2014 17:18

[Цитировать]

Акт мести / Act of Vengeance Страна: США
Жанр: драма, криминал, биография
Год выпуска: 1986
Продолжительность: 01:27:40
Перевод: Авторский (одноголосый закадровый) Андрей Гаврилов
Cубтитры: нет
Режиссер: Джон МакКензи / John Mackenzie
В ролях: Чарльз Бронсон, Эллен Бёрстин, Уилфорд Бримли, Хойт Экстон, Роберт Шенккан, Эллен Баркин, Мори Чайкин, Кэролайн Кэва, Пег Мюррэй, Уильям Ньюман
Описание: В этом телефильме Яблонски, деятель профсоюза шахтеров, бросает вызов коррумпированному профбоссу Тони Бойлу, что приводит к трагедии.

Качество видео: SATRip
Формат видео: AVI
Видео кодек: XviD
Аудио кодек: АС3
Видео: 640x480 (1.33:1), 25 fps, XviD build 73 ~937 kbps avg, 0.12 bit/pixel
Аудио: 48 kHz, AC3 Dolby Digital, 2/0 (L,R) ch, ~192 kbps за Гаврилова спасибо budulai-8
MediaInfoПолное имя : Акт мести 1986.avi
Формат : AVI
Формат/Информация : Audio Video Interleave
Размер файла : 714 Мбайт
Продолжительность : 1 ч. 27 м.
Общий поток : 1139 Кбит/сек
Программа кодирования : VirtualDubMod 1.5.10.2 (build 2540/release)
Библиотека кодирования : VirtualDubMod build 2540/release
Видео
Идентификатор : 0
Формат : MPEG-4 Visual
Профиль формата : Advanced Simple@L5
Параметр BVOP формата : 2
Параметр QPel формата : Нет
Параметр GMC формата : Без точки перехода
Параметр матрицы формата : Default (H.263)
Идентификатор кодека : XVID
Идентификатор кодека/Подсказка : XviD
Продолжительность : 1 ч. 27 м.
Битрейт : 937 Кбит/сек
Ширина : 640 пикселей
Высота : 480 пикселей
Соотношение сторон : 4:3
Частота кадров : 25,000 кадров/сек
Цветовое пространство : YUV
Субдискретизация насыщенности : 4:2:0
Битовая глубина : 8 бит
Тип развёртки : Прогрессивная
Метод сжатия : С потерями
Бит/(Пиксели*Кадры) : 0.122
Размер потока : 588 Мбайт (82%)
Библиотека кодирования : XviD 73
Аудио
Идентификатор : 1
Формат : AC-3
Формат/Информация : Audio Coding 3
Расширение режима : CM (complete main)
Параметр Endianness формата : Big
Идентификатор кодека : 2000
Продолжительность : 1 ч. 27 м.
Вид битрейта : Постоянный
Битрейт : 192 Кбит/сек
Каналы : 2 канала
Расположение каналов : Front: L R
Частота : 48,0 КГц
Битовая глубина : 16 бит
Метод сжатия : С потерями
Размер потока : 120 Мбайт (17%)
Выравнивание : Разделение по промежуткам
Продолжительность промежутка : 40 мс. (1,00 видеокадр)
Время предзагрузки промежутка : 500 мс.
Скриншоты
[reactorr.org].t59192.torrent
Торрент: Зарегистрирован [ 14-07-2014 17:18 ] · C2F15DA31E3B85D38B8430E0800F70961E8F43B1

Скачать .torrent

Скачать

14 KB

Статус: проверено
Скачан: 0 раз
Размер: 714 MB
terms.php
[Профиль] [ЛС]
Показать сообщения:    
Ответить на тему

Текущее время: 29-Мар 22:20

Часовой пояс: UTC + 3



Вы не можете начинать темы
Вы не можете отвечать на сообщения
Вы не можете редактировать свои сообщения
Вы не можете удалять свои сообщения
Вы не можете голосовать в опросах
Вы не можете прикреплять файлы к сообщениям
Вы можете скачивать файлы