2 дня / Два дня (Авдотья Смирнова) [2011, драма, комедия, BDRip]

Ответить на тему
Статистика раздачи
Размер:  745 MB   |    Зарегистрирован:  4 года 1 месяц   |    Скачан:  0 раз

Полного источника не было: 4 года 1 месяц

 
     
 
 
 
Автор
Сообщение

2 дня
Жанр: драма, комедия
Год выпуска: 2011
Продолжительность: 01:29:43
Режиссёр: Авдотья Смирнова
В ролях:
Ксения Раппопорт
Фёдор Бондарчук
Ирина Розанова
Евгений Муравич
Геннадий Смирнов
Леся Кудряшова
Константин Шелестун
Анна Михалкова
Описание:
Петр Дроздов, высокопоставленный чиновник из Москвы, приезжает в провинциальный музей полузабытого классика русской литературы по просьбе губернатора области, который хочет отнять у музея земельные владения и построить на них новую резиденцию. И поначалу Дроздов поддерживает это решение, но знакомство с Машей, молодым литературоведом, работающей в музее заместителем директора, меняет его взгляд не только на эту проблему, но и вообще на всю его жизнь...
Доп. информация:

Качество видео: BDRip
Формат видео: AVI
Видео: 640x272 (2.35:1), 25 fps, XviD build 64 ~1022 kbps avg, 0.23 bit/pixel
Аудио: 48 kHz, MPEG Layer 3, 2 ch, ~128.00 kbps avg
Сэмпл

MediaInfo

Общее
Полное имя : D:\Torrent\2 дня_745\2 дня_745.avi
Формат : AVI
Формат/Информация : Audio Video Interleave
Размер файла : 745 Мбайт
Продолжительность : 1 ч. 29 м.
Общий поток : 1160 Кбит/сек
Программа кодирования : VirtualDubModRus 1.5.10.2 (build 2540/release)
Библиотека кодирования : VirtualDubMod build 2540/release
Видео
Идентификатор : 0
Формат : MPEG-4 Visual
Профиль формата : Advanced Simple@L5
Параметр BVOP формата : 2
Параметр QPel формата : Нет
Параметр GMC формата : Без точки перехода
Параметр матрицы формата : Выборочная
Идентификатор кодека : XVID
Идентификатор кодека/Подсказка : XviD
Продолжительность : 1 ч. 29 м.
Битрейт : 1023 Кбит/сек
Ширина : 640 пикселей
Высота : 272 пикселя
Соотношение сторон : 2,35:1
Частота кадров : 25,000 кадров/сек
Цветовое пространство : YUV
Субдискретизация насыщенности : 4:2:0
Битовая глубина : 8 бит
Тип развёртки : Прогрессивная
Метод сжатия : С потерями
Бит/(Пиксели*Кадры) : 0.235
Размер потока : 656 Мбайт (88%)
Библиотека кодирования : XviD 64
Аудио
Идентификатор : 1
Формат : MPEG Audio
Версия формата : Version 1
Профиль формата : Layer 3
Режим : Joint stereo
Расширение режима : MS Stereo
Идентификатор кодека : 55
Идентификатор кодека/Подсказка : MP3
Продолжительность : 1 ч. 29 м.
Вид битрейта : Постоянный
Битрейт : 128 Кбит/сек
Каналы : 2 канала
Частота : 48,0 КГц
Метод сжатия : С потерями
Размер потока : 82,1 Мбайт (11%)
Выравнивание : Разделение по промежуткам
Продолжительность промежутка : 40 мс. (1,00 видеокадр)
Время предзагрузки промежутка : 500 мс.

Скриншот c названием фильма

Скриншоты

 
Показать сообщения:    
Ответить на тему