Вот и пришла любовь / Hote Hote Pyar Hogaya (Фероз Ирани / Firoz Irani) [1999, Индия, Боевик, мелодрама, криминал, DVDRip] MVO

Ответить на тему
Статистика раздачи
Размер:  1,46 GB   |    Зарегистрирован:  3 года   |    Скачан:  1 раз
Сидов:  6  [  0 KB/s  ]   Подробная статистика пиров
 
     
 
 
Автор Сообщение

Гость ®

Пол: Не указан

Создавать темы 18-Авг-2014 05:01

[Цитировать]

Вот и пришла любовь / Hote Hote Pyar Hogaya
Страна: Индия
Жанр: Боевик, мелодрама, криминал
Год выпуска: 1999
Продолжительность: 02:19:22
Перевод: Профессиональный (многоголосый закадровый)
Cубтитры: нет
Режиссер: Фероз Ирани / Firoz Irani
В ролях: Каджол, Атул Агнихотри, Джеки Шрофф, Аеша Джулка, Аруна Ирани, Кулбхушан Харбанда, Ади Ирани, Прем Чопра, Ашутош Баджпай, Рита Бхадури
Описание: Пинки и Банти учатся в колледже и встречаются на Молодёжном фестивале. Они сразу же проникают симпатией друг к другу и вскоре объясняются в любви. Но у их родителей свои планы относительно их будущей судьбы. Отец Банти обещал женить его на дочке близкогодруга, а Пинки помолвлена с офицером полиции Арджуном. Единственный способ соединить свои судьбы — бежать. Однако тётя Бинти отговаривает их от этого опрометчивого шага и предлагает свой вариант решения проблемы.
Доп. информация: Исходник DVD-9 (СПАСИБО! iceee)
Сэмпл: http://multi-up.com/992891
Качество видео: DVDRip
Формат видео: AVI
Видео: XviD build 50, 688x304 (2.26:1), 23.976 fps, 1362 kbps avg
Аудио: MPEG Layer 3, 48 kHz, 2/0 (L,R) ch, 128.00 kbps avg
MediaInfo
General
Complete name : D:\Vot.i.prishla.ljubov.1999.XviD.DVDRip-Dego.avi
Format : AVI
Format/Info : Audio Video Interleave
File size : 1.46 GiB
Duration : 2h 19mn
Overall bit rate : 1 500 Kbps
Writing application : VirtualDubMod 1.5.10.2 (build 2540/release)
Writing library : VirtualDubMod build 2540/release
Video
ID : 0
Format : MPEG-4 Visual
Format profile : AdvancedSimple@L5
Format settings, BVOP : Yes
Format settings, QPel : No
Format settings, GMC : No warppoints
Format settings, Matrix : Custom
Codec ID : XVID
Codec ID/Hint : XviD
Duration : 2h 19mn
Bit rate : 1 362 Kbps
Width : 688 pixels
Height : 304 pixels
Display aspect ratio : 2.25
Frame rate : 23.976 fps
Resolution : 24 bits
Colorimetry : 4:2:0
Scan type : Progressive
Bits/(Pixel*Frame) : 0.272
Stream size : 1.33 GiB (91%)
Writing library : XviD 1.2.1 (UTC 2008-12-04)
Audio
ID : 1
Format : MPEG Audio
Format version : Version 1
Format profile : Layer 3
Codec ID : 55
Codec ID/Hint : MP3
Duration : 2h 19mn
Bit rate mode : Constant
Bit rate : 128 Kbps
Channel(s) : 2 channels
Sampling rate : 48.0 KHz
Resolution : 16 bits
Stream size : 128 MiB (9%)
Alignment : Aligned on interleaves
Interleave, duration : 42 ms (1.00 video frame)
Interleave, preload duration : 504 ms
Writing library : LAME3.98r
Encoding settings : -m s -V 4 -q 2 -lowpass 17 -b 128
Скриншоты
Сравнения
http://reactorr.org/viewtopic.php?t=1195091
Разрешение у видео выше допустимого
http://screenshotcomparison.com/comparison/88049/picture:0
Перевод тот же.
[reactorr.org].t61394.torrent
Торрент: Зарегистрирован [ 18-08-2014 05:01 ] · D9F135470118484912A09059D5ED95D2F8895CAE

Скачать .torrent

Скачать

15 KB

Статус: проверено
Скачан: 1 раз
Размер: 1,46 GB
terms.php
 
Показать сообщения:    
Ответить на тему

Текущее время: 24-Авг 05:57

Часовой пояс: UTC + 3



Вы не можете начинать темы
Вы не можете отвечать на сообщения
Вы не можете редактировать свои сообщения
Вы не можете удалять свои сообщения
Вы не можете голосовать в опросах
Вы не можете прикреплять файлы к сообщениям
Вы можете скачивать файлы