Игра со смертью / Baazigar (Аббас Алибхай Бурмавалла, Мастан Алибхай Бурмавалла / Abbas Alibhai Burmawalla, Mastan Alibhai Burmawalla) [1993, Индия, Мелодрама, триллер, DVDRip] MVO (Формат АВ)

Ответить на тему
Статистика раздачи
Размер:  1,46 GB   |    Зарегистрирован:  2 года 8 месяцев   |    Скачан:  1 раз
Сидов:  2  [  0 KB/s  ]   Личеров:  4  [  0 KB/s  ]   Подробная статистика пиров
 
     
 
 
Автор Сообщение

Гость ®

Пол: Не указан

Создавать темы 18-Авг-2014 11:30

[Цитировать]

Игра со смертью / Baazigar
Страна: Индия
Жанр: Мелодрама, триллер
Год выпуска: 1993
Продолжительность: 03:02:13
Перевод: Профессиональный (многоголосый закадровый) Формат АВ
Cубтитры: нет
Режиссер: Аббас Алибхай Бурмавалла, Мастан Алибхай Бурмавалла / Abbas Alibhai Burmawalla, Mastan Alibhai Burmawalla
В ролях: Каджол, Шахрукх Кхан, Шилпа Шетти, Джонни Левер, Ракхи Гульзар, Далип Тахил
Описание: Много лет назад в семью Аджая Шармы пришла беда. Компаньон его отца Чапра подделывает доверительные документы, в результате чего отец разоряется и, не пережив этого, умирает от инфаркта. Все эти годы юноша живет с мечтой отомстить преступнику. С этой целью он начинает встречаться со старшей дочерью Чапры... Замечательная актёрская игра Ш.Кхана, дебют Шилпы Шетти и вторая актёрская работа Каджол
Доп. информация: Исходник DVD-9 (СПАСИБО! Nilda)
Сэмпл: http://multi-up.com/993007
Качество видео: DVDRip
Формат видео: AVI
Видео: XviD build 50, 688x368 (1.87:1), 23.976 fps, 1021 kbps avg
Аудио: MPEG Layer 3, 48 kHz, 2/0 (L,R) ch, 128.00 kbps avg
MediaInfo
General
Complete name : D:\Igra.so.smertyu.1993.XviD.DVDRip-Dego.avi
Format : AVI
Format/Info : Audio Video Interleave
File size : 1.46 GiB
Duration : 3h 2mn
Overall bit rate : 1 150 Kbps
Writing application : VirtualDubMod 1.5.10.2 (build 2540/release)
Writing library : VirtualDubMod build 2540/release
Video
ID : 0
Format : MPEG-4 Visual
Format profile : AdvancedSimple@L5
Format settings, BVOP : Yes
Format settings, QPel : No
Format settings, GMC : No warppoints
Format settings, Matrix : Custom
Codec ID : XVID
Codec ID/Hint : XviD
Duration : 3h 2mn
Bit rate : 1 013 Kbps
Width : 688 pixels
Height : 368 pixels
Display aspect ratio : 1.870
Frame rate : 23.976 fps
Resolution : 24 bits
Colorimetry : 4:2:0
Scan type : Progressive
Bits/(Pixel*Frame) : 0.167
Stream size : 1.29 GiB (88%)
Writing library : XviD 1.2.1 (UTC 2008-12-04)
Audio
ID : 1
Format : MPEG Audio
Format version : Version 1
Format profile : Layer 3
Codec ID : 55
Codec ID/Hint : MP3
Duration : 3h 2mn
Bit rate mode : Constant
Bit rate : 128 Kbps
Channel(s) : 2 channels
Sampling rate : 48.0 KHz
Resolution : 16 bits
Stream size : 167 MiB (11%)
Alignment : Aligned on interleaves
Interleave, duration : 42 ms (1.00 video frame)
Interleave, preload duration : 504 ms
Writing library : LAME3.98r
Encoding settings : -m s -V 4 -q 2 -lowpass 17 -b 128
Скриншоты
[reactorr.org].t61401.torrent
Торрент: Зарегистрирован [ 18-08-2014 11:30 ] · F3CE2485E922CDA2B2E2BBC3E0C0D607EE91BADB

Скачать .torrent

Скачать

15 KB

Статус: проверено
Скачан: 1 раз
Размер: 1,46 GB
terms.php
 
Показать сообщения:    
Ответить на тему

Текущее время: 30-Апр 16:07

Часовой пояс: UTC + 3



Вы не можете начинать темы
Вы не можете отвечать на сообщения
Вы не можете редактировать свои сообщения
Вы не можете удалять свои сообщения
Вы не можете голосовать в опросах
Вы не можете прикреплять файлы к сообщениям
Вы можете скачивать файлы