Здесь правлю я / Lakshmanrekha (Сунил Сиканд / Sunil Sikand) [1991, Индия, Драма, DVDRip] DVO

Ответить на тему
Статистика раздачи
Размер:  1,68 GB   |    Зарегистрирован:  2 года 8 месяцев   |    Скачан:  1 раз

Полного источника не было: 1 год 2 месяца

Личеров:  2  [  0 KB/s  ]   Подробная статистика пиров
 
     
 
 
Автор Сообщение

Izmail ®

Пол: Не указан

Стаж: 7 лет 7 месяцев

Сообщений: 2

Создавать темы 19-Авг-2014 23:53

[Цитировать]

Здесь правлю я / Lakshmanrekha
Страна: Индия
Жанр: Драма
Год выпуска: 1991
Продолжительность: 02:39:24
Перевод: Профессиональный (двухголосый закадровый)
Cубтитры: нет
Режиссер: Сунил Сиканд / Sunil Sikand
В ролях: Насируддин Шах, Викас Ананд, Суреш Бхагват, Сангита Биджлани, Дэнни Дензонгпа, Мангал Дхиллон, Автар Гилл, Раджан Хаксар, Рохини Хаттангди, Шамми Капур, Муштак Кхан, Джеки Шрофф, Шилпа Широдкар, Гирджа Шанкар, Каран Раздан, Пран, Ом Пракаш, Амрит Пал, Уша Надкарни, Раза Мурад
Описание: Амар Шарма (Насируддин Шах) и Вики (Джеки Шрофф) - друзья с детства. Амар - инспектор полиции, Вики - хулиган и дебошир, который не имеет никакого уважения к закону. Но судьба была несправедлива к Амару, его отца, Кишанлала Шарму (Пран), убивает, прямо на его глазах, бандит Бирджу (Дeнни Дензонгпа). Амар поклялся отомстить за смерть отца, пытаясь убить Бирджу на его яхте, у Амара ничего не получается, на помощь приходит Вики. Смогут ли друзья детства победить несправедливость и зло?
Доп. информация: Сведение звука: минакши (Спасибо!)
Сэмпл: http://multi-up.com/993530
Качество видео: DVDRip
Формат видео: AVI
Видео: XviD MPEG-4, 640x352 (1.82:1), 29.970 fps, 1334 kbps avg
Аудио: AC3 Dolby Digital, 48 kHz, 2/0 (L,R) ch, 160.00 kbps avg
MediaInfo
General
Complete name : F:\Zdes.Pravlyu.Ya.1991.DVDRip.XviD.AC3.avi
Format : AVI
Format/Info : Audio Video Interleave
File size : 1.68 GiB
Duration : 2h 39mn
Overall bit rate : 1 506 Kbps
Writing application : VirtualDubMod 1.5.10.2 (build 2540/release)
Writing library : VirtualDubMod build 2540/release
Video
ID : 0
Format : MPEG-4 Visual
Format profile : AdvancedSimple@L5
Format settings, BVOP : Yes
Format settings, QPel : No
Format settings, GMC : No warppoints
Format settings, Matrix : Custom
Codec ID : XVID
Codec ID/Hint : XviD
Duration : 2h 39mn
Bit rate : 1 334 Kbps
Width : 640 pixels
Height : 352 pixels
Display aspect ratio : 16/9
Frame rate : 29.970 fps
Resolution : 24 bits
Colorimetry : 4:2:0
Scan type : Progressive
Bits/(Pixel*Frame) : 0.198
Stream size : 1.49 GiB (89%)
Writing library : XviD 64
Audio
ID : 1
Format : AC-3
Format/Info : Audio Coding 3
Codec ID : 2000
Duration : 2h 39mn
Bit rate mode : Constant
Bit rate : 160 Kbps
Channel(s) : 2 channels
Channel positions : L R
Sampling rate : 48.0 KHz
Stream size : 182 MiB (11%)
Alignment : Split accross interleaves
Interleave, duration : 33 ms (1.00 video frame)
Interleave, preload duration : 500 ms
Language : Hindi
Скриншоты
[reactorr.org].t61543.torrent
Торрент: Зарегистрирован [ 19-08-2014 23:53 ] · 9EA0F19A53299DC1DBCB3694A989F94B5C5F4E97

Скачать .torrent

Скачать

17 KB

Статус: проверено
Скачан: 1 раз
Размер: 1,68 GB
terms.php
[Профиль] [ЛС]
Показать сообщения:    
Ответить на тему

Текущее время: 30-Апр 16:01

Часовой пояс: UTC + 3



Вы не можете начинать темы
Вы не можете отвечать на сообщения
Вы не можете редактировать свои сообщения
Вы не можете удалять свои сообщения
Вы не можете голосовать в опросах
Вы не можете прикреплять файлы к сообщениям
Вы можете скачивать файлы