Спасайся, кто может / Eena Meena Deeka (Дэвид Дхаван / David Dhawan) [1994, Индия, Боевик, комедия, криминал, DVDRip] MVO (Zee TV)

Ответить на тему
Статистика раздачи
Размер:  1,46 GB   |    Зарегистрирован:  2 года 4 месяца   |    Скачан:  1 раз
Сидов:  3  [  0 KB/s  ]   Личеров:  3  [  0 KB/s  ]   Подробная статистика пиров
 
     
 
 
Автор Сообщение

sitjamer ®

Пол: Не указан

Стаж: 7 лет 3 месяца

Сообщений: 1

Создавать темы 16-Окт-2014 11:55

[Цитировать]

Спасайся, кто может / Eena Meena Deeka
-Страна: Индия
Жанр: Боевик, комедия, криминал
Год выпуска: 1994
Продолжительность: 02:14:25-Перевод: Профессиональный (многоголосый закадровый) - Zee TV
Cубтитры: Нет-Режиссер: Дэвид Дхаван / David Dhawan-В ролях: Винод Кханна, Риши Капур, Джухи Чавла, Кадер Кхан, Шакти Капур, Анупам Кхер, Киран Кумар, Гульшан Гровер, Мохниш Бехл, Алок Натх-Описание: Ина (Риши Капур) – мелкий мошенник, дорожащий в этом мире только матерью. Ради нее он может пойти на все… даже на ограбление банка. Но в этом ограблении с самого начала все идет не так: слишком быстро приезжает полиция, слишком серьезно настроена, да еще и случайный заложник оказывается матерым бандитом Дикой (Винод Кханна). И вот уже заложник превращается в террориста и берет в заложники Ину и дочь заместителя комиссара полиции Мину (Джухи Чавла). Безумная гонка с похищенными деньгами продолжается, и по пятам беглецов следуют полиция, шайка нищих попрошаек и бывший босс Дики, Бхуджанг. Словом, спасайся, кто может!-Доп. информация: Это римейк французской комедии «Беглецы», в которой главные роли исполнили Пьер Ришар и Жерар Депардье.-- -Качество видео: DVDRip
Исходник: DVD9 R1
Формат видео: AVI-Видео: 656x336 (1.95:1), 29.970 fps, XviD build 50 ~1413 kbps avg, 0.21 bit/pixel
Audio: 48 kHz, MPEG Layer 3, 2 ch, ~128.00 kbps-Сэмпл / Sample-Риппер, синхрон. звука: soso4eg- --
Скриншоты:
-
MI
General
Complete name : C:\INDIYA\Spasaisya.Kto.Mozhet.1994.DVDRip.XviD-soso4eg.avi
Format : AVI
Format/Info : Audio Video Interleave
File size : 1.46 GiB
Duration : 2h 14mn
Overall bit rate : 1 553 Kbps
Movie name : Eena.Meena.Deeka.1994.DVDRip.XviD-soso4eg
Director : soso4eg
Writing application : VirtualDubMod 1.5.10.3 | www.virtualdub-fr.org || (build 2550/release)
Original source form/Name : Hindi
Copyright : специально для BitTorrent трекер RuTracker.org (ex torrents.ru)
Comment : пер. Zee TV
Video
ID : 0
Format : MPEG-4 Visual
Format profile : Advanced Simple@L5
Format settings, BVOP : 1
Format settings, QPel : No
Format settings, GMC : No warppoints
Format settings, Matrix : Default (MPEG)
Codec ID : XVID
Codec ID/Hint : XviD
Duration : 2h 14mn
Bit rate : 1 414 Kbps
Width : 656 pixels
Height : 336 pixels
Display aspect ratio : 1.952
Frame rate : 29.970 fps
Color space : YUV
Chroma subsampling : 4:2:0
Bit depth : 8 bits
Scan type : Progressive
Compression mode : Lossy
Bits/(Pixel*Frame) : 0.214
Stream size : 1.33 GiB (91%)
Writing library : XviD 1.2.1 (UTC 2008-12-04)
Audio
ID : 1
Format : MPEG Audio
Format version : Version 1
Format profile : Layer 3
Mode : Joint stereo
Codec ID : 55
Codec ID/Hint : MP3
Duration : 2h 14mn
Bit rate mode : Constant
Bit rate : 128 Kbps
Channel count : 2 channels
Sampling rate : 48.0 KHz
Compression mode : Lossy
Stream size : 123 MiB (8%)
Alignment : Aligned on interleaves
Interleave, duration : 33 ms (1.00 video frame)
Interleave, preload duration : 504 ms
[reactorr.org].t65690.torrent
Торрент: Зарегистрирован [ 16-10-2014 11:55 ] · 5613FFF0853CE30E27EC06B177553C8BB3990FA4

Скачать .torrent

Скачать

15 KB

Статус: проверено
Скачан: 1 раз
Размер: 1,46 GB
terms.php
[Профиль] [ЛС]
Показать сообщения:    
Ответить на тему

Текущее время: 25-Фев 21:51

Часовой пояс: UTC + 3



Вы не можете начинать темы
Вы не можете отвечать на сообщения
Вы не можете редактировать свои сообщения
Вы не можете удалять свои сообщения
Вы не можете голосовать в опросах
Вы не можете прикреплять файлы к сообщениям
Вы можете скачивать файлы