Я был в Нюрнберге / J'etais a Nuremberg / I Was in Nuremberg (Андре Шандель / Andre Chandelle) [2010, Франция, исторический, драма, DVB] Original (Fre) + Sub (rus)

Ответить на тему
Статистика раздачи
Размер:  2,94 GB   |    Зарегистрирован:  2 года 11 месяцев   |    Скачан:  1 раз
Сидов:  10  [  0 KB/s  ]   Личеров:  5  [  0 KB/s  ]   Подробная статистика пиров
 
     
 
 
Автор Сообщение

Dozent ®

Пол: Не указан

Стаж: 8 лет 1 месяц

Сообщений: 1

Создавать темы 08-Ноя-2014 23:52

[Цитировать]

Я был в Нюрнберге
J'étais à Nüremberg- Страна: Франция
Жанр: исторический, драма
Год выпуска: 2010
Продолжительность: 01:32:57
Перевод: Субтитры (перевод А.Дунаева, Éclair Group)
Cубтитры: русские
Оригинальная аудиодорожка: французский
Режиссер: Андре Шандель / André ChandelleВ ролях: Серж Хазанавичус / Serge Hazanavicius (Pierre Bernard), Жюли Гайе / Julie Gayet (Marie-Claude Vaillant-Couturier), Элина Лёвенсон / Elina Löwensohn (Nina), Мишель Жонас / Michel Jonasz (François Bloch), Патрик Рейналь / Patrick Raynal (Champetier de Ribes), Жан-Филипп Лафон / Jean-Philippe Lafont (Goering), Ивайло Александров / Ivailo Aleksandrov (Rudolph Hoess)
Описание: Показ Нюрнбергского процесса сквозь призму взглядов двух вымышленных персонажей: помощника прокурора Пьера Бернара, члена французской делегации и команды Главного обвинителя Роберта Джексона; и молодой польской переводчицы Нины, приставленной к советской делегации…
Доп. информация: TV5MONDE DVB-S. Во время нефранцузской речи на экране дополнительно вшитые французские субтитры.
Участник La Rochelle TV Festival 2010.

Качество видео: DVB
Формат видео: MKV
Видео: MPEG Video 2, 704x576@1024x576 (16:9), 25 fps, ~4244 kbps avg, 0.419 bit/pixel
Аудио: Французский (MPEG Audio 2, 2 ch, 48 kHz, ~192.00 kbps avg)
Формат субтитров: hardsub (неотключаемые)
MediaInfo
Общее
Уникальный идентификатор : 200706076319166908299999870398531682219 (0x96FE9590C6A3348BBA9AA4151534BFAB)
Полное имя : E:\My Torrents 2\[apreder]J'etais_a_Nuremberg(2010)DVB.mkv
Формат : Matroska
Версия формата : Version 2
Размер файла : 2,94 Гбайт
Продолжительность : 1 ч. 32 м.
Режим общего битрейта : Переменный
Общий поток : 4526 Кбит/сек
Дата кодирования : UTC 2014-11-08 16:04:30
Программа кодирования : mkvmerge v7.3.0 ('Nouages') 64bit built on Oct 22 2014 18:53:34
Библиотека кодирования : libebml v1.3.0 + libmatroska v1.4.1
Видео
Идентификатор : 1
Формат : MPEG Video
Версия формата : Version 2
Профиль формата : Main@Main
Параметр BVOP формата : Нет
Параметр матрицы формата : Выборочная
Format_Settings_PictureStructure : Frame
Идентификатор кодека : V_MPEG2
Идентификатор кодека/Информация : MPEG 1 or 2 Video
Продолжительность : 1 ч. 32 м.
Вид битрейта : Переменный
Битрейт : 4244 Кбит/сек
Максимальный битрейт : 6423 Кбит/сек
Ширина : 704 пикселя
Высота : 576 пикселей
Соотношение сторон : 16:9
Режим частоты кадров : Постоянный
Частота кадров : 25,000 кадров/сек
Стандарт вещания : PAL
Цветовое пространство : YUV
Субдискретизация насыщенности : 4:2:0
Битовая глубина : 8 бит
Тип развёртки : Чересстрочная
Порядок развёртки : Верхнее поле первое
Метод сжатия : С потерями
Бит/(Пиксели*Кадры) : 0.419
Временной код первого кадра : 00:00:00:00
Оригинал временного кода : Group of pictures header
Размер потока : 2,76 Гбайт (94%)
Default : Да
Forced : Нет
Аудио
Идентификатор : 2
Формат : MPEG Audio
Версия формата : Version 1
Профиль формата : Layer 2
Идентификатор кодека : A_MPEG/L2
Идентификатор кодека/Подсказка : MP2
Продолжительность : 1 ч. 32 м.
Вид битрейта : Постоянный
Битрейт : 192 Кбит/сек
Каналы : 2 канала
Частота : 48,0 КГц
Метод сжатия : С потерями
Размер потока : 128 Мбайт (4%)
Язык : French
Default : Да
Forced : Нет
Скриншот c названием фильма
Скриншоты

Резервные скриншоты
-[1'901]
[reactorr.org].t67620.torrent
Торрент: Зарегистрирован [ 08-11-2014 23:52 ] · 36E13E4FBA14ABA20A978C0B8DE0FC67D170D144

Скачать .torrent

Скачать

15 KB

Статус: проверено
Скачан: 1 раз
Размер: 2,94 GB
terms.php
[Профиль] [ЛС]
Показать сообщения:    
Ответить на тему

Текущее время: 24-Окт 03:23

Часовой пояс: UTC + 3



Вы не можете начинать темы
Вы не можете отвечать на сообщения
Вы не можете редактировать свои сообщения
Вы не можете удалять свои сообщения
Вы не можете голосовать в опросах
Вы не можете прикреплять файлы к сообщениям
Вы можете скачивать файлы