Бобро поржаловать! / Bienvenue chez les Ch'tis (Дэни Бун / Dany Boon) [2008, Франция, Комедия, HDRip] Dub

Ответить на тему
Статистика раздачи
Размер:  743 MB   |    Зарегистрирован:  2 года 7 месяцев   |    Скачан:  4 раза
Сидов:  8  [  0 KB/s  ]   Личеров:  1  [  0 KB/s  ]   Подробная статистика пиров
 
     
 
 
Автор Сообщение

Iro-dayme ®

Пол: Не указан

Стаж: 7 лет 7 месяцев

Сообщений: 2

Создавать темы 16-Ноя-2014 23:54

[Цитировать]

Бобро поржаловать! / Bienvenue chez les Ch'tis
Страна: Франция
Жанр: Комедия
Год выпуска: 2008
Продолжительность: 01:46:00
Перевод: Профессиональный (дублированный)
Cубтитры: нет
Режиссер: Дэни Бун / Dany Boon
В ролях: Кад Мерад, Дэни Бун, Зоэ Феликс, Лоренцо Осилья-Форе, Энн Маривин, Филипп Дюкен, Гай Леклюиз, Лайн Рено, Мишель Галабрю, Стефан Фрейсс
Описание: Филипп Абрамс, начальник почтового отделения на юге Франции в Салон-де-Прованс делает всё для того, чтобы быть переведённым по службе в Кассис, райский уголок близ Марселя. Однако все его старания и мечты идут крахом, когда за мелкое служебное нарушение он получает дисциплинарный перевод на два года в Берг на Севере, близ Дюнкерка.
Для людей с Юга Франции, наполненных стереотипами, Север — это ужас, полярный регион, населённый грубыми существами, разговаривающими на непонятном языке. К своему великому изумлению, Филипп Абрамс обнаруживает там очаровательное место, тёплую команду, гостеприимных людей и приобретает новых друзей.
Сэмпл: http://multi-up.com/1013521
Качество видео: HDRip
Формат видео: AVI
Видео: 640x272 (2.35:1), 24 fps, XviD build 73 ~842 kbps avg, 0.20 bit/pixel
Аудио: 48 kHz, MPEG Layer 3, 2 ch, ~128.00 kbps avg
MediaInfo
General
Complete name : C:\Users\SONY\Desktop\Бобро поржаловать.2008 HDRip.avi
Format : AVI
Format/Info : Audio Video Interleave
File size : 743 MiB
Duration : 1h 46mn
Overall bit rate : 980 Kbps
Writing application : VirtualDubMod 1.5.10.3 | www.virtualdub-fr.org || (build 2550/release)
Writing library : VirtualDubMod build 2550/release
Video
ID : 0
Format : MPEG-4 Visual
Format profile : Advanced Simple@L5
Format settings, BVOP : 1
Format settings, QPel : No
Format settings, GMC : No warppoints
Format settings, Matrix : Custom
Codec ID : XVID
Codec ID/Hint : XviD
Duration : 1h 46mn
Bit rate : 843 Kbps
Width : 640 pixels
Height : 272 pixels
Display aspect ratio : 2.35:1
Frame rate : 24.000 fps
Color space : YUV
Chroma subsampling : 4:2:0
Bit depth : 8 bits
Scan type : Progressive
Compression mode : Lossy
Bits/(Pixel*Frame) : 0.202
Stream size : 639 MiB (86%)
Writing library : XviD 73
Audio
ID : 1
Format : MPEG Audio
Format version : Version 1
Format profile : Layer 3
Codec ID : 55
Codec ID/Hint : MP3
Duration : 1h 46mn
Bit rate mode : Constant
Bit rate : 128 Kbps
Channel(s) : 2 channels
Sampling rate : 48.0 KHz
Compression mode : Lossy
Stream size : 97.1 MiB (13%)
Alignment : Aligned on interleaves
Interleave, duration : 42 ms (1.00 video frame)
Interleave, preload duration : 504 ms
Writing library : LAME3.99r
Encoding settings : -m s -V 4 -q 2 -lowpass 17 -b 128
Скриншот c названием фильма
Скриншоты
[reactorr.org].t68218.torrent
Торрент: Зарегистрирован [ 16-11-2014 23:54 ] · E071E129EBA4D0A7DC38E25E52733A39B80E8F10

Скачать .torrent

Скачать

15 KB

Статус: проверено
Скачан: 4 раз
Размер: 743 MB
terms.php
[Профиль] [ЛС]
Показать сообщения:    
Ответить на тему

Текущее время: 23-Июн 23:35

Часовой пояс: UTC + 3



Вы не можете начинать темы
Вы не можете отвечать на сообщения
Вы не можете редактировать свои сообщения
Вы не можете удалять свои сообщения
Вы не можете голосовать в опросах
Вы не можете прикреплять файлы к сообщениям
Вы можете скачивать файлы