U-47. Капитан-лейтенант Прин / U47 - Kapitänleutnant Prien (Харальд Райнль / Harald Reinl) [1958, Германия (ФРГ), военный, драма, DVDRip] VO (den904)

Ответить на тему
Статистика раздачи
Размер:  1,45 GB   |    Зарегистрирован:  2 года 6 месяцев   |    Скачан:  6 раз
Сидов:  27  [  0 KB/s  ]   Личеров:  3  [  0 KB/s  ]   Подробная статистика пиров
 
     
 
 
Автор Сообщение

fantom35 ®

Пол: Не указан

Стаж: 8 лет

Сообщений: 1

Создавать темы 25-Ноя-2014 16:56

[Цитировать]

U-47. Капитан-лейтенант Прин / U47 - Kapitänleutnant Prien
Страна: Германия (ФРГ), Arca-Filmproduktion GmbH
Жанр: Военный, драма
Год выпуска: 1958
Продолжительность: 01:26:50
Перевод: Одноголосый закадровый den904
Cубтитры: нет
Оригинальная аудиодорожка: нет
Режиссер: Харальд Райнль / Harald Reinl
В ролях: Дитер Эпплер, Забине Зессельманн, Йоахим Фуксбергер, Харальд Юнке, Юта Халлант, Ольга Чехова, Эрнст Рейнхольд, Маттиас Фукс, Хорст Науманн, Рихард Хаусслер, Эрнст Рейнхольд, Маттиас Фукс, Дитер Борш, Петер Карстен, Майкл Крамер, Клаус-Юрген Даен, Хайнц Энгельманн, Вальдемар Фрам, Питер Херцог, Хоаким Мокк, Гарри Рэймон, Ева Шрайбе, Вернер Сток, Энди Ванн
Описание: Фильм основан на реальных фактах. В начале Второй мировой войны командующий подводным флотом Германии Карл Дёниц поручил самому успешному, на тот момент, командиру подлодки капитан-лейтенанту Гюнтеру Прину особую миссию — проникнусь на британскую военно-морскую базу в Скапа-Флоу и нанести там как можно больший урон флоту противника. В ночь с 13 на 14 октября 1939 года эта задача была успешно выполнена: были потоплены английский линкор "Royal Oak" и старый авианосец "Pegasus". На "Ройял Оуке" погибли 24 офицера и 809 матросов. Данное нападение открыло для субмарины U-47 череду успешных операций... Всего подлодка потопила 30 судов, пока в ночь с 7 на 8.03.1941 г. в 200 милях южнее Исландии, сама не пошла на дно со всем экипажем, потопленная эсминцем "Вулверин".
Доп. информация: Рип мой.
Перевод субтитрами dsa69. По ним выполнена озвучка. Инициаторы перевода: alinto, jasenka, ZeDOK, a2000s, Lentyai80, Simpun, Arias, yanaelisa, babek555, Der eiserne Wolf, duum100, Drenkens. Наложение чистого голоса на оригинальную дорогу Нордер. Всем большое спасибо.
Сэмпл: http://multi-up.com/1015150
Качество видео: DVDRip
Исходник (спасибо alinto)
Формат видео: AVI
Видео: XviD build 73, 688x528 (4:3), 25.00 fps, 2189 kbps avg
Аудио: Russian AC3 Dolby Digital, 48 kHz, 2/0 (L,R) ch, 192.00 kbps avg
MediaInfo
General
Complete name : F:\U-47_T01\Kapitänleutnant Prien_1958.DVDRip.VO.avi
Format : AVI
Format/Info : Audio Video Interleave
File size : 1.45 GiB
Duration : 1h 26mn
Overall bit rate : 2 391 Kbps
Writing application : VirtualDubModRus 1.5.10.2 (build 2542/release)
Writing library : VirtualDubMod build 2542/release
Video
ID : 0
Format : MPEG-4 Visual
Format profile : Advanced Simple@L5
Format settings, BVOP : 1
Format settings, QPel : No
Format settings, GMC : No warppoints
Format settings, Matrix : Default (MPEG)
Codec ID : XVID
Codec ID/Hint : XviD
Duration : 1h 26mn
Bit rate : 2 189 Kbps
Width : 688 pixels
Height : 528 pixels
Display aspect ratio : 4:3
Frame rate : 25.000 fps
Color space : YUV
Chroma subsampling : 4:2:0
Bit depth : 8 bits
Scan type : Progressive
Compression mode : Lossy
Bits/(Pixel*Frame) : 0.241
Stream size : 1.33 GiB (92%)
Writing library : XviD 73
Audio
ID : 1
Format : AC-3
Format/Info : Audio Coding 3
Mode extension : CM (complete main)
Format settings, Endianness : Big
Codec ID : 2000
Duration : 1h 26mn
Bit rate mode : Constant
Bit rate : 192 Kbps
Channel(s) : 2 channels
Channel positions : Front: L R
Sampling rate : 48.0 KHz
Bit depth : 16 bits
Compression mode : Lossy
Stream size : 119 MiB (8%)
Alignment : Split accross interleaves
Interleave, duration : 40 ms (1.00 video frame)
Interleave, preload duration : 500 ms
Скриншоты
[reactorr.org].t68710.torrent
Торрент: Зарегистрирован [ 25-11-2014 16:56 ] · C96EAA10A1D21982D42AFD6EDCA924E3EB8E090B

Скачать .torrent

Скачать

15 KB

Статус: проверено
Скачан: 6 раз
Размер: 1,45 GB
terms.php
[Профиль] [ЛС]
Показать сообщения:    
Ответить на тему

Текущее время: 23-Июн 23:46

Часовой пояс: UTC + 3



Вы не можете начинать темы
Вы не можете отвечать на сообщения
Вы не можете редактировать свои сообщения
Вы не можете удалять свои сообщения
Вы не можете голосовать в опросах
Вы не можете прикреплять файлы к сообщениям
Вы можете скачивать файлы