Великий уравнитель / The Equalizer (2014) HDRip

Ответить на тему
Статистика раздачи
Размер:  2.05 GB   |    Зарегистрирован:  2 года 1 месяц   |    Скачан:  2 раза
Сидов:  311  [  0 KB/s  ]   Личеров:  95  [  0 KB/s  ]   Подробная статистика пиров
 
     
 
 
Автор
Сообщение

-Великий уравнитель / The Equalizer (2014) HDRip - Год выпуска: 2014
Производство: США, Columbia Pictures, Escape Artists, Lionsgate, Lonetree Entertainment, LStar Capital, Mace Neufeld Productions, Village Roadshow Pictures
Жанр: Боевик, Криминал, Триллер
Режиссер: Антуан Фукуа
Продюсер: Тодд Блэк, Джейсон Блюменталь, Тони Элдридж
Актеры: Дензел Вашингтон, Мартон Чокаш, Хлоя Грейс Морец, Дэвид Харбор, Хейли Беннетт, Билл Пуллман, Мелисса Лео, Дэвид Мюнье, Джонни Скуртис, Алекс Видов
Описание фильма:
Роберт МакКолл — бывший спецназовец. После увольнения со службы он собирается начать нормальную мирную жизнь, дав себе обещание, больше никогда не брать в руки оружия. Но в один прекрасный момент он встречает молодую девушку, зарабатывающую на жизнь проституцией, которую на его глазах избивают бандиты и увозят в неизвестном направлении. Тогда он решает отыскать ее, после чего вступает в неравную схватку с русской мафией и продажными агентами ЦРУ. Ради справедливости он готов нарушить собственное обещание и применить оружие против людей, которые просто не заслуживают жить в этом мире…
Перевод: Дублированный (iTunes)
Субтитры: Отсутствуют

Дата мировой премьеры: 7 сентября 2014
Дата российской премьеры: 25 сентября 2014, «WDSSPR»
Дата выхода DVD релиза: 22 января 2015, «CP Дистрибуция»
Рейтинг MPAA: RG-17
Возраст: 16+
Продолжительность: 02:12:02
Качество видео: HDRip
Видеокодек: XviD
Битрейт видео: 1827 kb/s
Размер кадра: 720x304
Аудиокодек: AC3 5.1
Битрейт аудио: 384 kb/s

MI

Код:
Общее
Полное имя                               : D:\Раздачи\Великий.уравнитель.2014.HDRip.NNM-CLUB.avi
Формат                                   : AVI
Формат/Информация                        : Audio Video Interleave
Профиль формата                          : OpenDML
Размер файла                             : 2,05 Гбайт
Продолжительность                        : 2 ч. 12 м.
Общий поток                              : 2223 Кбит/сек
Программа кодирования                    : VirtualDubMod 1.5.10.3 |  (build 2550/release)
Библиотека кодирования                   : VirtualDubMod build 2550/release
Видео
Идентификатор                            : 0
Формат                                   : MPEG-4 Visual
Профиль формата                          : Advanced Simple@L5
Параметр BVOP формата                    : 2
Параметр QPel формата                    : Нет
Параметр GMC формата                     : Без точки перехода
Параметр матрицы формата                 : Default (MPEG)
Идентификатор кодека                     : XVID
Идентификатор кодека/Подсказка           : XviD
Продолжительность                        : 2 ч. 12 м.
Битрейт                                  : 1827 Кбит/сек
Ширина                                   : 720 пикселей
Высота                                   : 304 пикселя
Соотношение сторон                       : 2,35:1
Частота кадров                           : 23,976 кадра/сек
Цветовое пространство                    : YUV
Субдискретизация насыщенности            : 4:2:0
Битовая глубина                          : 8 бит
Тип развёртки                            : Прогрессивная
Метод сжатия                             : С потерями
Бит/(Пиксели*Кадры)                      : 0.348
Размер потока                            : 1,68 Гбайт (82%)
Библиотека кодирования                   : XviD 1.2.1 (UTC 2008-12-04)
Аудио
Идентификатор                            : 1
Формат                                   : AC-3
Формат/Информация                        : Audio Coding 3
Расширение режима                        : CM (complete main)
Параметр Endianness формата              : Big
Идентификатор кодека                     : 2000
Продолжительность                        : 2 ч. 12 м.
Вид битрейта                             : Постоянный
Битрейт                                  : 384 Кбит/сек
Каналы                                   : 6 каналов
Расположение каналов                     : Front: L C R, Side: L R, LFE
Частота                                  : 48,0 КГц
Битовая глубина                          : 16 бит
Метод сжатия                             : С потерями
Размер потока                            : 363 Мбайт (17%)
Выравнивание                             : Разделение по промежуткам
Продолжительность промежутка             : 42  мс. (1,00 видеокадр)
Время предзагрузки промежутка            : 500  мс.
Скриншоты:
Время раздачи: 24/7,
до 5 скачавших.
 
Показать сообщения:    
Ответить на тему