Избави нас от лукавого / Deliver Us from Evil (2014) BDRip [H.264]

Ответить на тему
Статистика раздачи
Размер:  4,75 GB   |    Зарегистрирован:  2 года 4 месяца   |    Скачан:  1 раз
Сидов:  21  [  0 KB/s  ]   Личеров:  16  [  0 KB/s  ]   Подробная статистика пиров
 
     
 
 
Автор Сообщение

SGamiroff ®

Пол: Не указан

Стаж: 7 лет 3 месяца

Сообщений: 1

Создавать темы 16-Дек-2014 22:59

[Цитировать]

-Избави нас от лукавого / Deliver Us from Evil (2014) BDRip [H.264]
« You haven't seen true evil »
- Год выпуска: 2014
Производство: США | Screen Gems, LStar Capital, Jerry Bruckheimer Films
Жанр: Ужасы, Триллер
Режиссер: Скотт Дерриксон
Продюсер: Джерри Брукхаймер, Пол Харрис Бордман, Гленн С. Гейнор
Актеры: Эрик Бана, Эдгар Рамирес, Оливия Манн, Крис Кой, Дориан Миссик, Шон Харрис, Джоэл МакХэйл, Майк Хьюстон, Лулу Уилсон, Оливия Хортон, Скотт Джонсен, Дэниэл Саули, Антониетта ЛаВеккия, Эйдан Джемме, Дженна Гэвигэн
Описание фильма: Полиция Нью-Йорка расследует серию тревожных и необъяснимых преступлений. Один из офицеров обращается за помощью к специалисту по экзорцизму, чтобы избавить город от дьявольской напасти.
Перевод: Профессиональный дублированный, авторский
Вид субтитров: Вшитые отключаемые
Язык субтитров: Русский (Forced, Full), английский- -Дата мировой премьеры: 2 июля 2014
Дата российской премьеры: 28 августа 2014, «WDSSPR»
Дата выхода DVD релиза: 4 декабря 2014, «CP Дистрибуция»
Дата выхода Blu-ray релиза: 4 декабря 2014, «CP Дистрибуция»
Продолжительность: 01:58:26
Возраст 18+: Зрителям, достигшим 18 лет
Рейтинг MPAA R: Лицам до 17 лет обязательно присутствие взрослого
Качество видео: BDRip [H.264]
Видео: MPEG-4 AVC/H.264, 3500 Kbps, 1024 x 426
Аудио 1: Русский AC3 5.1, 448 Kbps, 48.0 KHz (Полное дублирование) Blu-ray CEE
Аудио 2: Русский AC3 5.1, 448 Kbps, 48.0 KHz (Одноголосый закадровый) А. Дольский
Аудио 3: Русский AC3 5.1, 448 Kbps, 48.0 KHz (Одноголосый закадровый) А. Матвеев
Аудио 4: Русский AC3 5.1, 448 Kbps, 48.0 KHz (Одноголосый закадровый) Ю. Немахов
Аудио 5: Английский AC3 5.1, 448 Kbps, 48.0 KHz (Оригинал)-
Blu-ray
MediaInfo
Общее
Полное имя : Избави нас от лукавого.mkv
Формат : Matroska
Версия формата : Version 1
Размер файла : 4,75 Гбайт
Продолжительность : 1 ч. 58 м.
Общий поток : 5745 Кбит/сек
Дата кодирования : UTC 2014-12-16 16:15:43
Программа кодирования : mkvmerge v2.4.1 ('Use Me') built on Dec 5 2008 18:30:05
Библиотека кодирования : libebml v0.7.7 + libmatroska v0.8.1
Видео
Идентификатор : 1
Формат : AVC
Формат/Информация : Advanced Video Codec
Профиль формата : High@L4.1
Параметр CABAC формата : Да
Параметр ReFrames формата : 10 кадров
Идентификатор кодека : V_MPEG4/ISO/AVC
Продолжительность : 1 ч. 58 м.
Битрейт : 3500 Кбит/сек
Ширина : 1024 пикселя
Высота : 426 пикселей
Соотношение сторон : 2,40:1
Режим частоты кадров : Постоянный
Частота кадров : 23,976 кадра/сек
Цветовое пространство : YUV
Субдискретизация насыщенности : 4:2:0
Битовая глубина : 8 бит
Тип развёртки : Прогрессивная
Бит/(Пиксели*Кадры) : 0.335
Размер потока : 2,81 Гбайт (59%)
Заголовок : Избави нас от лукавого (2014)
Библиотека кодирования : x264 core 142 r2431 ac76440
Настройки программы : cabac=1 / ref=10 / deblock=1:-3:-3 / analyse=0x3:0x133 / me=umh / subme=10 / psy=1 / psy_rd=1.00:0.10 / mixed_ref=1 / me_range=48 / chroma_me=1 / trellis=2 / 8x8dct=1 / cqm=0 / deadzone=21,11 / fast_pskip=0 / chroma_qp_offset=-3 / threads=6 / lookahead_threads=1 / sliced_threads=0 / nr=0 / decimate=1 / interlaced=0 / bluray_compat=0 / constrained_intra=0 / bframes=5 / b_pyramid=2 / b_adapt=2 / b_bias=0 / direct=3 / weightb=1 / open_gop=0 / weightp=2 / keyint=240 / keyint_min=22 / scenecut=40 / intra_refresh=0 / rc_lookahead=40 / rc=2pass / mbtree=1 / bitrate=3500 / ratetol=1.0 / qcomp=0.60 / qpmin=10 / qpmax=51 / qpstep=4 / cplxblur=20.0 / qblur=0.5 / ip_ratio=1.40 / aq=1:1.00
Язык : English
Аудио #1
Идентификатор : 2
Формат : AC-3
Формат/Информация : Audio Coding 3
Расширение режима : CM (complete main)
Параметр Endianness формата : Big
Идентификатор кодека : A_AC3
Продолжительность : 1 ч. 58 м.
Вид битрейта : Постоянный
Битрейт : 448 Кбит/сек
Каналы : 6 каналов
Расположение каналов : Front: L C R, Side: L R, LFE
Частота : 48,0 КГц
Битовая глубина : 16 бит
Метод сжатия : С потерями
Размер потока : 380 Мбайт (8%)
Заголовок : AC3 (Дублированный) Blu-ray CEE
Язык : Russian
Аудио #2
Идентификатор : 3
Формат : AC-3
Формат/Информация : Audio Coding 3
Расширение режима : CM (complete main)
Параметр Endianness формата : Big
Идентификатор кодека : A_AC3
Продолжительность : 1 ч. 58 м.
Вид битрейта : Постоянный
Битрейт : 448 Кбит/сек
Каналы : 6 каналов
Расположение каналов : Front: L C R, Side: L R, LFE
Частота : 48,0 КГц
Битовая глубина : 16 бит
Метод сжатия : С потерями
Размер потока : 380 Мбайт (8%)
Заголовок : AC3 (Одноголосый) А. Дольский
Язык : Russian
Аудио #3
Идентификатор : 4
Формат : AC-3
Формат/Информация : Audio Coding 3
Расширение режима : CM (complete main)
Параметр Endianness формата : Big
Идентификатор кодека : A_AC3
Продолжительность : 1 ч. 58 м.
Вид битрейта : Постоянный
Битрейт : 448 Кбит/сек
Каналы : 6 каналов
Расположение каналов : Front: L C R, Side: L R, LFE
Частота : 48,0 КГц
Битовая глубина : 16 бит
Метод сжатия : С потерями
Размер потока : 380 Мбайт (8%)
Заголовок : AC3 (Одноголосый) А. Матвеев
Язык : Russian
Аудио #4
Идентификатор : 5
Формат : AC-3
Формат/Информация : Audio Coding 3
Расширение режима : CM (complete main)
Параметр Endianness формата : Big
Идентификатор кодека : A_AC3
Продолжительность : 1 ч. 58 м.
Вид битрейта : Постоянный
Битрейт : 448 Кбит/сек
Каналы : 6 каналов
Расположение каналов : Front: L C R, Side: L R, LFE
Частота : 48,0 КГц
Битовая глубина : 16 бит
Метод сжатия : С потерями
Размер потока : 380 Мбайт (8%)
Заголовок : AC3 (Одноголосый) Ю. Немахов
Язык : Russian
Аудио #5
Идентификатор : 6
Формат : AC-3
Формат/Информация : Audio Coding 3
Расширение режима : CM (complete main)
Параметр Endianness формата : Big
Идентификатор кодека : A_AC3
Продолжительность : 1 ч. 58 м.
Вид битрейта : Постоянный
Битрейт : 448 Кбит/сек
Каналы : 6 каналов
Расположение каналов : Front: L C R, Side: L R, LFE
Частота : 48,0 КГц
Битовая глубина : 16 бит
Метод сжатия : С потерями
Размер потока : 380 Мбайт (8%)
Заголовок : AC3 (Оригинал)
Язык : English
Текст #1
Идентификатор : 7
Формат : UTF-8
Идентификатор кодека : S_TEXT/UTF8
Идентификатор кодека/Информация : UTF-8 Plain Text
Заголовок : Русские (Форсированные)
Язык : Russian
Текст #2
Идентификатор : 8
Формат : UTF-8
Идентификатор кодека : S_TEXT/UTF8
Идентификатор кодека/Информация : UTF-8 Plain Text
Заголовок : Русские
Язык : Russian
Текст #3
Идентификатор : 9
Формат : UTF-8
Идентификатор кодека : S_TEXT/UTF8
Идентификатор кодека/Информация : UTF-8 Plain Text
Заголовок : Английские
Язык : English
Дополнительно
* Фильм снят по мотивам книги нью-йоркского полицейского Ральфа Сарчи «Остерегайтесь ночи» (Beware of the night), которая была написана на основе его личного опыта.
* Главную роль предлагали Марку Уолбергу, но он отказался. В итоге роль получил Эрик Бана.
* Джоэл МакХэйл несколько месяцев посещал тренировки по обращению с ножами и боевым искусствам, чтобы самостоятельно выполнять трюки с ножами во время съемок. При этом он не получил практически ни одной травмы за время тренировок и в период съемок. Лишь в последний съемочный день, когда сын МакХэйла пришел на съемочную площадку, актер решил отрезать для него своим ножом кусок белого шоколада и порезался.
* Роль Батлера изначально писалась под Джоэла МакХэйла. При этом, по словам режиссера Скотта Дерриксона, Батлер был худшим персонажем в сценарии. Но потом он представил – каким бы был МакХэйл, если бы он пошел в армию, а не в колледж, и работал бы в правоохранительных органах, а не в сфере развлечений. После этого писать роль стало проще, и персонаж был значительно доработан.
* В фильме большое количество музыки группы The Doors, а также различных отсылок на нее. К примеру, во время финального изгнания нечистой силы Сантино говорит: «Is everybody in? Is everybody in? The ceremony is about to begin» (Все в сборе? Все в сборе? Церемония скоро начнется). Это отсылка к песне «Celebration Of The Lizard».
-Скриншоты:
[reactorr.org].t70293.torrent
Торрент: Зарегистрирован [ 16-12-2014 22:59 ] · 397F92FC9C46BF2207D827A2C57C2D7A375564F1

Скачать .torrent

Скачать

13 KB

Статус: проверено
Скачан: 1 раз
Размер: 4,75 GB
terms.php
[Профиль] [ЛС]
Показать сообщения:    
Ответить на тему

Текущее время: 27-Апр 20:11

Часовой пояс: UTC + 3



Вы не можете начинать темы
Вы не можете отвечать на сообщения
Вы не можете редактировать свои сообщения
Вы не можете удалять свои сообщения
Вы не можете голосовать в опросах
Вы не можете прикреплять файлы к сообщениям
Вы можете скачивать файлы