Симона / S1m0ne (Эндрю Никкол / Andrew Niccol) [2002, США, Фантастика, фэнтези, драма, мелодрама, комедия, HDTVRip] MVO

Ответить на тему
Статистика раздачи
Размер:  745 MB   |    Зарегистрирован:  2 года 3 месяца   |    Скачан:  0 раз
Сидов:  1  [  0 KB/s  ]   Личеров:  2  [  0 KB/s  ]   Подробная статистика пиров
 
     
 
 
Автор Сообщение

dratox ®

Пол: Не указан

Стаж: 6 лет 6 месяцев

Сообщений: 1

Создавать темы 03-Янв-2015 04:58

[Цитировать]

Симона / S1m0ne-«Как сделать звезду...» -Страна: США
Жанр: Фантастика, фэнтези, драма, мелодрама, комедия
Год выпуска: 2002
Продолжительность: 01:57:27-Перевод: Профессиональный (многоголосый закадровый)
Cубтитры: нет-Режиссер: Эндрю Никкол / Andrew Niccol-В ролях: Аль Пачино, Рэйчел Робертс, Кэтрин Кинер, Эван Рэйчел Вуд, Джей Мор, Вайнона Райдер, Прюитт Тэйлор Винс, Джейсон Шварцман, Дэниэл фон Барген, Элиас Котеас-Описание: Съемки фильма поставлены под угрозу срыва, когда актриса, предполагавшаяся на главную роль, отказывается сниматься. Режиссер решает заменить ее цифровой актрисой Симоной, созданной с помощью компьютера.
Однако все принимают искусственную девушку за настоящую. На волне внезапного успеха Симоны режиссер не осмеливается раскрыть свой обман ни окружающим,.. ни самому себе.-
Рейтинг MPAA "PG-13": Детям до 13 лет просмотр не желателен-Качество видео: HDTVRip
Формат видео: AVI
Видео: 640x272 (2.35:1), 23.976 fps, ~749 kbps avg, 0.18 bit/pixel
Аудио: 48 kHz, MPEG Layer 3, 2 ch, ~128.00 kbps avg
Скриншоты
Исходник HDTV 1080p
MediaInfo
General
Complete name : D:\S1m0ne.2002.HDTVRip.avi
Format : AVI
Format/Info : Audio Video Interleave
File size : 745 MiB
Duration : 1h 57mn
Overall bit rate : 887 Kbps
Writing application : VirtualDubMod 1.5.10.3 | www.virtualdub-fr.org || (build 2550/release)
Writing library : VirtualDubMod build 2550/release
Video
ID : 0
Format : MPEG-4 Visual
Format profile : Advanced Simple@L5
Format settings, BVOP : 1
Format settings, QPel : No
Format settings, GMC : No warppoints
Format settings, Matrix : Default (MPEG)
Codec ID : XVID
Codec ID/Hint : XviD
Duration : 1h 57mn
Bit rate : 750 Kbps
Width : 640 pixels
Height : 272 pixels
Display aspect ratio : 2.35:1
Frame rate : 23.976 fps
Color space : YUV
Chroma subsampling : 4:2:0
Bit depth : 8 bits
Scan type : Progressive
Compression mode : Lossy
Bits/(Pixel*Frame) : 0.180
Stream size : 630 MiB (85%)
Writing library : XviD 1.2.1 (UTC 2008-12-04)
Audio
ID : 1
Format : MPEG Audio
Format version : Version 1
Format profile : Layer 3
Codec ID : 55
Codec ID/Hint : MP3
Duration : 1h 57mn
Bit rate mode : Constant
Bit rate : 128 Kbps
Channel(s) : 2 channels
Sampling rate : 48.0 KHz
Compression mode : Lossy
Stream size : 108 MiB (14%)
Alignment : Aligned on interleaves
Interleave, duration : 42 ms (1.00 video frame)
Interleave, preload duration : 504 ms
Writing library : LAME3.99r
Encoding settings : -m s -V 4 -q 2 -lowpass 17 -b 128
[reactorr.org].t71169.torrent
Торрент: Зарегистрирован [ 03-01-2015 04:58 ] · BCFE8DC83FBD869F691BE57096CF7AD3D8C4E821

Скачать .torrent

Скачать

15 KB

Статус: проверено
Скачан: 0 раз
Размер: 745 MB
terms.php
[Профиль] [ЛС]
Показать сообщения:    
Ответить на тему

Текущее время: 30-Апр 15:57

Часовой пояс: UTC + 3



Вы не можете начинать темы
Вы не можете отвечать на сообщения
Вы не можете редактировать свои сообщения
Вы не можете удалять свои сообщения
Вы не можете голосовать в опросах
Вы не можете прикреплять файлы к сообщениям
Вы можете скачивать файлы