Принцесса Самарканда / La princesa de Samarkanda / Золотая орда / The Golden Horde (Джордж Шерман / George Sherman) [1951, США, Приключения, TVRip] VO SATKUR

Ответить на тему
Статистика раздачи
Размер:  1,16 GB   |    Зарегистрирован:  2 года 2 месяца   |    Скачан:  3 раза
Сидов:  16  [  0 KB/s  ]   Личеров:  7  [  0 KB/s  ]   Подробная статистика пиров
 
     
 
 
Автор Сообщение

Kinksman ®

Пол: Не указан

Стаж: 8 лет

Сообщений: 1

Создавать темы 06-Янв-2015 06:41

[Цитировать]

Принцесса Самарканда / La princesa de Samarkanda / Золотая орда / The Golden Horde
Страна: США
Жанр: Приключения
Год выпуска: 1951
Продолжительность: 01:13:11
Перевод: Любительский одноголосый SATKUR на основе субтитров Igor2138
Режиссер: Джордж Шерман / George Sherman
В ролях: Энн Блит, Дэвид Фаррар, Джордж Макреди, Генри Брэндон, Ховард Петри, Ричард Иган, Марвин Миллер, Дональд Рэндольф, Пегги Кастл
Описание: XIII век. Принцесса Самарканда Шалимар пытается спасти свой город от орды Чингисхана. Она прибегает к женской хитрости, местным суевериям и пророчествам. Ей также стремится оказать помощь английский крестоносец сэр Гай, недавно сумевший ускользнуть из осажденного сарацинами Триполи, после того как возглавлял его героическую оборону, в результате чего от города остались одни руины. Напуганная подобной перспективой Шалимар пытается отделаться от него. Но рыцарь уже закусил удила, и готов поджечь её дворец и весь город, когда в него входит передовой отряд воинов Чингисхана, во главе которого стоят сын монгольского кагана Джучи и племенной вождь Тоглук. Принцессе удается разжечь их соперничество, но теперь, помимо прочих, город угрожает сжечь шаман бога Тенгри Рейвен, раздосадованный кипучей деятельностью принцессы.
Информация о релизе: Спасибо Larisa547 за организацию и предоставление материалов для перевода; перевод субтитрами Igor2138, озвучка фильма SATKUR
Семпл

Качество видео: TVRip
Формат видео: AVI
Видео: 512x384, 25 fps, 2074Kbps, 0.422 bit/pixel
Аудио: 48 kHz, AC3 Dolby Digital, 2/0 (L,R) ch, 192 kbps
MediaInfo
Общее
Полное имя : E:\Мои раздачи\Золотая Орда\The.Golden.Horde.1951.USA.[vo.satku].avi
Формат : AVI
Формат/Информация : Audio Video Interleave
Размер файла : 1,16 Гбайт
Продолжительность : 1 ч. 13 м.
Общий поток : 2276 Кбит/сек
Программа кодирования : VirtualDubMod 1.5.10.2 (build 2540/release)
Библиотека кодирования : VirtualDubMod build 2540/release
Видео
Идентификатор : 0
Формат : MPEG-4 Visual
Профиль формата : Simple@L1
Параметр BVOP формата : Нет
Параметр QPel формата : Нет
Параметр GMC формата : Без точки перехода
Параметр матрицы формата : Default (H.263)
Идентификатор кодека : XVID
Идентификатор кодека/Подсказка : XviD
Продолжительность : 1 ч. 13 м.
Битрейт : 2074 Кбит/сек
Ширина : 512 пикселей
Высота : 384 пикселя
Соотношение сторон : 4:3
Частота кадров : 25,000 кадров/сек
Цветовое пространство : YUV
Субдискретизация насыщенности : 4:2:0
Битовая глубина : 8 бит
Тип развёртки : Прогрессивная
Метод сжатия : С потерями
Бит/(Пиксели*Кадры) : 0.422
Размер потока : 1,06 Гбайт (91%)
Библиотека кодирования : Lavc52.84.0
Аудио
Идентификатор : 1
Формат : AC-3
Формат/Информация : Audio Coding 3
Расширение режима : CM (complete main)
Параметр Endianness формата : Big
Идентификатор кодека : 2000
Продолжительность : 1 ч. 13 м.
Вид битрейта : Постоянный
Битрейт : 192 Кбит/сек
Каналы : 2 канала
Расположение каналов : Front: L R
Частота : 48,0 КГц
Битовая глубина : 16 бит
Метод сжатия : С потерями
Размер потока : 101 Мбайт (8%)
Выравнивание : Разделение по промежуткам
Продолжительность промежутка : 40 мс. (1,00 видеокадр)
Время предзагрузки промежутка : 500 мс.
Раздачи с моим переводом на Рутрекере
Его высочество вор с субтитрами
Его высочество вор с озвучкой Kibborg
Его высочество вор ДВД с озвучкой Kibborg
Капитан Хайберских стрелков с субтитрами
Бенгальская бригада с субтитрами
Бенгальская бригада с озвучкой SATKUR
Золотой клинок с субтитрами
Золотой клинок с озвучкой SATKUR
Прощай, Бонапарт с озвучкой Andi
Капризы реки
Жизнь, любовь и приключения Омара Хайяма с озвучкой Kolobroad
Приключения Хаджи Бабы с озвучкой Kolobroad
Ястреб Пустыни
Тайна инков с озвучкой Kolobroad
Тайна инков ДВД5 с озвучкой Kolobroad
Сабля Сарацина / Сын Красного корсара / Корсар и рабыня с субтитрами
Сабля Сарацина / Сын Красного корсара / Корсар и рабыня с озвучкой SATKUR
Форт Алжир с озвучкой Andi
Капитан Лайтфут
Шахерезада, озвучен студией Райдо
Повелитель пустыни с озвучкой голосовым движком Алена
Десять храбрецов с озвучкой Andi
100 всадников с озвучкой Andi
Лидия Бэйли с озвучкой голосовым движком Алена
Женщина-кобра с озвучкой голосовым движком Алена
Фехтовальщик с озвучкой Kolobroad
Принц Валиант (1954) с озвучкой Kolobroad
Судан (1945) с озвучкой Kolobroad
Черный рыцарь (1954) с озвучкой shachter58
Лорна Дун (1951) с озвучкой Kolobroad
Повелитель пустыни с озвучкой SATKUR
Убийцы с Килиманджаро с озвучкой SATKUR
Притворный принц с озвучкой SATKUR
Восточный Судан с озвучкой SATKUR
Вор из Дамаска с озвучкой shachter58
За пределами Момбасы с озвучкой SATKUR
Северо-западная граница с озвучкой SATKUR
Триполи с озвучкой SATKUR
За горизонтом с озвучкой SATKUR
Кастилец с озвучкой SATKUR
Карибы с озвучкой SATKUR
Последнее сафари с озвучкой SATKUR
К востоку от Суматры с озвучкой SATKUR
Белый дикарь с озвучкой Kolobroad
1001 ночь с озвучкой Kolobroad
Хиваро с озвучкой Kolobroad
Белая охотница с озвучкой Kolobroad
Пленники Касбы с озвучкой SATKUR
Клуб Адского огня с озвучкой SATKUR
Трое в лодке, не считая собаки с озвучкой SATKUR
Принцесса Самарканда / Золотая орда с озвучкой SATKUR
Скриншот c названием фильма
[reactorr.org].t71308.torrent
Торрент: Зарегистрирован [ 06-01-2015 06:41 ] · 671B00D7FEFD42274AF954474C67DF065B403C1E

Скачать .torrent

Скачать

12 KB

Статус: проверено
Скачан: 3 раз
Размер: 1,16 GB
terms.php
[Профиль] [ЛС]
Показать сообщения:    
Ответить на тему

Текущее время: 25-Мар 18:44

Часовой пояс: UTC + 3



Вы не можете начинать темы
Вы не можете отвечать на сообщения
Вы не можете редактировать свои сообщения
Вы не можете удалять свои сообщения
Вы не можете голосовать в опросах
Вы не можете прикреплять файлы к сообщениям
Вы можете скачивать файлы