Аватар / Avatar (Джеймс Кэмерон / James Cameron) [2009, США, Фантастика, боевик, драма, приключения, BDRip] [Расширенная версия / Extended Cut] Dub + Sub

Ответить на тему
Статистика раздачи
Размер:  1,47 GB   |    Зарегистрирован:  2 года 3 месяца   |    Скачан:  4 раза
Сидов:  14  [  0 KB/s  ]   Личеров:  2  [  0 KB/s  ]   Подробная статистика пиров
 
     
 
 
Автор Сообщение

indrikis ®

Пол: Не указан

Стаж: 7 лет 5 месяцев

Сообщений: 1

Создавать темы 06-Янв-2015 06:46

[Цитировать]

Аватар / Avatar
«Это новый мир»
- Год выпуска: 2009
Выпущено: США, Великобритания / 20th Century Fox Film Corporation
Жанр: фантастика, боевик, драма, приключения
Продолжительность: 02:58:09
Перевод: Профессиональный (полное дублирование)
Cубтитры: Русские (форсированные) (внешние .srt*)-Режиссер:
Джеймс Кэмерон / James Cameron-В ролях:
Сэм Уортингтон (Jake Sully), Зои Салдана (Neytiri), Сигурни Уивер (Grace), Стивен Лэнг (Colonel Miles Quaritch), Мишель Родригес (Trudy Chacon), Джованни Рибизи (Parker Selfridge), Джоэль Мур (Norm Spellman), Си Си Эйч Паундер (Moat), Уэс Стьюди (Eytukan), Лас Алонсо (Tsu'tey)-Описание:
Джейк Салли — бывший морской пехотинец, прикованный к инвалидному креслу. Несмотря на немощное тело, Джейк в душе по-прежнему остается воином. Он получает задание совершить путешествие в несколько световых лет к базе землян на планете Пандора, где корпорации добывают редкий минерал, имеющий огромное значение для выхода Земли из энергетического кризиса.-Релиз групп | | IMDB | КиноПоиск | Сэмпл |-Качество: BDRip [BDRemux]
Формат: AVI
Видео: 656x368 (1.78:1), 23.976 fps, XviD build 73 ~1042 kbps avg, 0.18 bit/pixel
Аудио: 48 kHz, MPEG Layer 3, 2 ch, ~128.00 kbps avg
-
Скриншоты
MediaInfo
General
Complete name                            : D:\Avatar_2009_BDRip_[Extended_Cut]_by_Dalemake.avi
Format                                   : AVI
Format/Info                              : Audio Video Interleave
File size                                : 1.47 GiB
Duration                                 : 2h 58mn
Overall bit rate                         : 1 180 Kbps
Writing application                      : VirtualDubMod 1.5.10.3 | www.virtualdub-fr.org || (build 2550/release)
Writing library                          : VirtualDubMod build 2550/release
[br]
Video
ID                                       : 0
Format                                   : MPEG-4 Visual
Format profile                           : Advanced Simple@L5
Format settings, BVOP                    : 1
Format settings, QPel                    : No
Format settings, GMC                     : No warppoints
Format settings, Matrix                  : Custom
Codec ID                                 : XVID
Codec ID/Hint                            : XviD
Duration                                 : 2h 58mn
Bit rate                                 : 1 043 Kbps
Width                                    : 656 pixels
Height                                   : 368 pixels
Display aspect ratio                     : 16:9
Frame rate                               : 23.976 fps
Color space                              : YUV
Chroma subsampling                       : 4:2:0
Bit depth                                : 8 bits
Scan type                                : Progressive
Compression mode                         : Lossy
Bits/(Pixel*Frame)                       : 0.180
Stream size                              : 1.30 GiB (88%)
Writing library                          : XviD 73
[br]
Audio
ID                                       : 1
Format                                   : MPEG Audio
Format version                           : Version 1
Format profile                           : Layer 3
Codec ID                                 : 55
Codec ID/Hint                            : MP3
Duration                                 : 2h 58mn
Bit rate mode                            : Constant
Bit rate                                 : 128 Kbps
Channel(s)                               : 2 channels
Sampling rate                            : 48.0 KHz
Compression mode                         : Lossy
Stream size                              : 163 MiB (11%)
Alignment                                : Aligned on interleaves
Interleave, duration                     : 42 ms (1.00 video frame)
Interleave, preload duration             : 504 ms
Writing library                          : LAME3.99r
Encoding settings                        : -m s -V 4 -q 2 -lowpass 17 -b 128
Сравнение
http://reactorr.org/viewtopic.php?t=3273090 - недокроп по бокам
http://screenshotcomparison.com/comparison/107613
+ более обширные субтитры с пояснениями
-
[reactorr.org].t71314.torrent
Торрент: Зарегистрирован [ 06-01-2015 06:46 ] · 9CE850302C350665F452857EDFA969586BF1ABF0

Скачать .torrent

Скачать

15 KB

Статус: проверено
Скачан: 4 раз
Размер: 1,47 GB
terms.php
[Профиль] [ЛС]
Показать сообщения:    
Ответить на тему

Текущее время: 28-Апр 03:46

Часовой пояс: UTC + 3



Вы не можете начинать темы
Вы не можете отвечать на сообщения
Вы не можете редактировать свои сообщения
Вы не можете удалять свои сообщения
Вы не можете голосовать в опросах
Вы не можете прикреплять файлы к сообщениям
Вы можете скачивать файлы