Маленькая принцесса / The Little Princess (Уолтер Лэнг, Уильям А. Сайтер / Walter Lang, William A. Seiter) [1939 г., Комедия, драма, мюзикл, семейный, DVDRip] 2xMVO (Светла + РенТВ) + VO (С. Визгунов) + Original (Eng) + Sub (Eng)

Ответить на тему
Статистика раздачи
Размер:  1,59 GB   |    Зарегистрирован:  2 года 3 месяца   |    Скачан:  0 раз
Сидов:  2  [  0 KB/s  ]   Подробная статистика пиров
 
     
 
 
Автор Сообщение

aply ®

Пол: Не указан

Стаж: 6 лет 1 месяц

Сообщений: 1

Создавать темы 06-Янв-2015 06:55

[Цитировать]

Маленькая принцесса / The Little Princess
Год выпуска: 1939
Страна: США
Жанр: Комедия, драма, мюзикл, семейный
Продолжительность: 01:33:07
Перевод: Профессиональный (многоголосый закадровый) ООО "Светла"
Перевод 2: Профессиональный (многоголосый закадровый) РенТВ
Перевод 3: Авторский (одноголосый закадровый) Сергей Визгунов (отдельным файлом)
Оригинальная аудиодорожка: Английская
Cубтитры: английские

Режиссер: Уолтер Лэнг, Уильям А. Сайтер / Walter Lang, William A. Seiter
В ролях: Ширли Темпл, Ричард Грин, Анита Луиз, Йен Хантер, Сизар Ромеро, Артур Тричер, Мэри Нэш, Сибил Джейсон, Майлз Мандер, Марсия Мэй Джонс, Ричард Грин, Анита Луиз, Йен Хантер, Сизар Ромеро, Артур Тричер, Мэри Нэш, Сибил Джейсон, Майлз Мандер, Марсия Мэй Джонс
Описание: Лондон. Конец XIX века. Капитан Кру, отправляясь на войну, привозит свою любимую дочь Сару, которую он называет «маленькой принцессой», в один из лучших и самых дорогих пансионов, чтобы она получила хорошее образование. Добрая, отзывчивая Сара быстро находит новых подруг. Ее самостоятельность и уважительное отношение к людям покоряют всех. Однажды приходит страшная весть — отец Сары погибает, не оставив дочери средств к существованию. Юной героине предстоит пройти через ненависть и унижение, голод и нищету. Но ее доброта, ум и находчивость помогают преодолеть все невзгоды.
- | Сэмпл | -Качество: DVDRip
Формат: AVI
Видео: 640x480 (1.33:1), 23.976 fps, XviD ~1655 kbps, 0.22 bit/pixel
Аудио 1: Русский, 48 kHz, AC3, 2 ch, ~192 kbps ("Светла")
Аудио 2: Русский, 48 kHz, AC3, 2 ch, ~192 kbps (РенТВ)
Аудио 3: Английский, 48 kHz, AC3, 2 ch, ~192 kbps
Аудио 4: Русский, 48 kHz, AC3, 2 ch, ~192 kbps (Сергей Визгунов - отдельным файлом)
Cубтитры: Английские
MediaInfo
General
Complete name : The.Little.Princess.1939.Rus.Eng.Olu6ka\The.Little.Princess.1939.Rus2.Eng.Olu6ka.avi
Format : AVI
Format/Info : Audio Video Interleave
File size : 1.46 GiB
Duration : 1h 33mn
Overall bit rate : 2 249 Kbps
Writing application : VirtualDubModRus 1.5.10.2 (build 2542/release)
Writing library : VirtualDubMod build 2542/release
Video
ID : 0
Format : MPEG-4 Visual
Format profile : Advanced Simple@L5
Format settings, BVOP : 1
Format settings, QPel : No
Format settings, GMC : No warppoints
Format settings, Matrix : Custom
Codec ID : XVID
Codec ID/Hint : XviD
Duration : 1h 33mn
Bit rate : 1 654 Kbps
Width : 640 pixels
Height : 480 pixels
Display aspect ratio : 4:3
Frame rate : 23.976 fps
Color space : YUV
Chroma subsampling : 4:2:0
Bit depth : 8 bits
Scan type : Progressive
Compression mode : Lossy
Bits/(Pixel*Frame) : 0.225
Stream size : 1.08 GiB (74%)
Writing library : XviD 73
Audio #1
ID : 1
Format : AC-3
Format/Info : Audio Coding 3
Mode extension : CM (complete main)
Format settings, Endianness : Big
Codec ID : 2000
Duration : 1h 33mn
Bit rate mode : Constant
Bit rate : 192 Kbps
Channel count : 2 channels
Channel positions : Front: L R
Sampling rate : 48.0 KHz
Bit depth : 16 bits
Compression mode : Lossy
Stream size : 128 MiB (9%)
Alignment : Split accross interleaves
Interleave, duration : 42 ms (1.00 video frame)
Interleave, preload duration : 500 ms
Audio #2
ID : 2
Format : AC-3
Format/Info : Audio Coding 3
Mode extension : CM (complete main)
Format settings, Endianness : Big
Codec ID : 2000
Duration : 1h 33mn
Bit rate mode : Constant
Bit rate : 192 Kbps
Channel count : 2 channels
Channel positions : Front: L R
Sampling rate : 48.0 KHz
Bit depth : 16 bits
Compression mode : Lossy
Stream size : 128 MiB (9%)
Alignment : Split accross interleaves
Interleave, duration : 42 ms (1.00 video frame)
Interleave, preload duration : 500 ms
Audio #3
ID : 3
Format : AC-3
Format/Info : Audio Coding 3
Mode extension : CM (complete main)
Format settings, Endianness : Big
Codec ID : 2000
Duration : 1h 33mn
Bit rate mode : Constant
Bit rate : 192 Kbps
Channel count : 2 channels
Channel positions : Front: L R
Sampling rate : 48.0 KHz
Bit depth : 16 bits
Compression mode : Lossy
Stream size : 128 MiB (9%)
Alignment : Split accross interleaves
Interleave, duration : 42 ms (1.00 video frame)
Interleave, preload duration : 500 ms
Дополнительно

Восхитительный фильм для всей семьи, поставленный в 1939 году режиссером Уолтером Лэнгом с участием юной голливудской звезды Ширли Темпл, ставшей кумиром для миллионов юных зрителей. Ширли Темпл – «маленькая очаровательная богиня», самая яркая кинозвезда-ребенок музыкального Голливуда и самая популярная в мире актриса детских фильмов. Это был талантливейший ребенок, второго такого никогда не было и не будет. В справочнике «Кто есть кто в Америке» о ней написано больше, чем о великой Грете Гарбо. Дочь банкира, Ширли в возрасте трех лет дебютировала в фильме «Вставай и пой!» и уже к шести годам Темпл стала всемирно известной актрисой, снявшейся более чем в семидесяти фильмах, за которые получала солидные гонорары и заработавшая более 1 млн. долларов ещё до того, как ей исполнилось 10 лет.
Ширли Темпл (англ. Shirley Temple; 23 апреля 1928 — 10 февраля 2014) — американская актриса, обладательница «Молодёжной награды Академии» за 1934 год (самый молодой человек, получивший «Оскар»), наиболее известная по своим детским ролям в 1930-х годах. Ширли Темпл стала одной из самых высокооплачиваемых актрис США во время Великой депрессии. После завершения актёрской карьеры она занялась политикой, став видным американским дипломатом и послом. Американский институт киноискусства поставил её на 18-е место в списке 100 величайших звёзд кино за 100 лет. Современными киноведами считается самой популярной детской актрисой всех времён.
Сравнение

Alevtinaa - http://reactorr.org/viewtopic.php?t=4515700 - 4 аудио + сабы
http://screenshotcomparison.com/comparison/107397/ - апскейл и телекино, фильтрация - если не ошибаюсь-Сравнение с рипами по другим исходникам:
Rusalochka - http://reactorr.org/viewtopic.php?t=1219514 (ООО "Светла")
http://screenshotcomparison.com/comparison/107645/
Kruil - http://reactorr.org/viewtopic.php?t=1070829 (перевод Визгунов)
http://screenshotcomparison.com/comparison/107648
Огромная признательность palmeiras за исходник!Релиз от группы
[reactorr.org].t71329.torrent
Торрент: Зарегистрирован [ 06-01-2015 06:55 ] · 478FBE2079528AD69B12BD2F799B4D24F79BC290

Скачать .torrent

Скачать

17 KB

Статус: проверено
Скачан: 0 раз
Размер: 1,59 GB
terms.php
[Профиль] [ЛС]
Показать сообщения:    
Ответить на тему

Текущее время: 30-Апр 15:58

Часовой пояс: UTC + 3



Вы не можете начинать темы
Вы не можете отвечать на сообщения
Вы не можете редактировать свои сообщения
Вы не можете удалять свои сообщения
Вы не можете голосовать в опросах
Вы не можете прикреплять файлы к сообщениям
Вы можете скачивать файлы