Новая полицейская история / New police story / Xin jing cha gu shi (Бенни Чан / Benny Chan) [2004, Китай, Гонконг, боевик, драма, криминал, BDRip] Dub

Ответить на тему
Статистика раздачи
Размер:  1,46 GB   |    Зарегистрирован:  2 года 3 месяца   |    Скачан:  1 раз
Сидов:  4  [  0 KB/s  ]   Личеров:  3  [  0 KB/s  ]   Подробная статистика пиров
 
     
 
 
Автор Сообщение

liavna ®

Пол: Не указан

Стаж: 6 лет

Сообщений: 1

Создавать темы 08-Янв-2015 06:04

[Цитировать]

Новая полицейская история / New police story / Xin jing cha gu shi- Страна: Китай, Гонконг
Год выпуска: 2004
Жанр: боевик, драма, криминал
Продолжительность: 02:02:54
Перевод: Профессиональный (полное дублирование)
Оригинальная аудиодорожка: нет
Cубтитры: нет
Режиссер: Бенни Чан / Benny Chan
В ролях: Джеки Чан, Николас Це, Винни Люн, Эрик Квок, Дип ЭнДжи, Кеннет Лоу, Тони Хо, Тимми Хунг
Описание: Команда инспектора Винга почти полностью уничтожена в неравной схватке с гангстерами. Чудом оставшийся в живых полицейский винит себя в смерти друзей и начинает искать забвение в алкоголе. Новый напарник инспектора, молодой офицер помогает Вингу вернуться к жизни. Вместе они бросают вызов мафии Гонконга и вступают на путь мести, чтобы наказать убийц своих товарищей.
-Качество: BDRip [BDRemux 1080p]
Формат: AVI
Видео кодек: XviD
Аудио кодек: AC3
Видео: 720x304 (2.37:1), 23.976 fps, XviD build 73 ~1502 kbps avg, 0.29 bit/pixel
Аудио: 48 kHz, AC3 Dolby Digital, 2/0 (L,R) ch, ~192 kbps-Раздача от: -
Скриншоты
MI
D:\Мои рипы\New.police.story.2004.bdrip.dexter_lex.avi
General
Complete name : D:\Мои рипы\New.police.story.2004.bdrip.dexter_lex.avi
Format : AVI
Format/Info : Audio Video Interleave
File size : 1.46 GiB
Duration : 2h 2mn
Overall bit rate : 1 704 Kbps
Writing application : VirtualDubMod 1.5.10.3 | www.virtualdub-fr.org || (build 2550/release)
Writing library : VirtualDubMod build 2550/release
Video #0
ID : 0
Format : MPEG-4 Visual
Format profile : Advanced Simple@L5
Format settings, BVOP : 1
Format settings, QPel : No
Format settings, GMC : No warppoints
Format settings, Matrix : Custom
Codec ID : XVID
Codec ID/Hint : XviD
Duration : 2h 2mn
Bit rate : 1 503 Kbps
Width : 720 pixels
Height : 304 pixels
Display aspect ratio : 2.35:1
Frame rate : 23.976 fps
Color space : YUV
Chroma subsampling : 4:2:0
Bit depth : 8 bits
Scan type : Progressive
Compression mode : Lossy
Bits/(Pixel*Frame) : 0.286
Stream size : 1.29 GiB (88%)
Writing library : XviD 73
Audio #1
ID : 1
Format : AC-3
Format/Info : Audio Coding 3
Mode extension : CM (complete main)
Codec ID : 2000
Duration : 2h 2mn
Bit rate mode : Constant
Bit rate : 192 Kbps
Channel(s) : 2 channels
Channel positions : Front: L R
Sampling rate : 48.0 KHz
Bit depth : 16 bits
Compression mode : Lossy
Stream size : 169 MiB (11%)
Alignment : Split accross interleaves
Interleave, duration : 42 ms (1.00 video frame)
Interleave, preload duration : 500 ms
[reactorr.org].t71402.torrent
Торрент: Зарегистрирован [ 08-01-2015 06:04 ] · D3570351AC80E42746FDFAB92399231C8592146D

Скачать .torrent

Скачать

15 KB

Статус: проверено
Скачан: 1 раз
Размер: 1,46 GB
terms.php
[Профиль] [ЛС]
Показать сообщения:    
Ответить на тему

Текущее время: 30-Апр 16:11

Часовой пояс: UTC + 3



Вы не можете начинать темы
Вы не можете отвечать на сообщения
Вы не можете редактировать свои сообщения
Вы не можете удалять свои сообщения
Вы не можете голосовать в опросах
Вы не можете прикреплять файлы к сообщениям
Вы можете скачивать файлы