Осада / The Siege (Эдвард Цвик / Edward Zwick) [1998, США, Боевик, триллер, драма, криминал, BDRip] Dub

Ответить на тему
Статистика раздачи
Размер:  1,46 GB   |    Зарегистрирован:  1 год 8 месяцев   |    Скачан:  1 раз
Сидов:  32  [  0 KB/s  ]   Подробная статистика пиров
 
     
 
 
Автор Сообщение

Skillters ®

Пол: Мужской

Стаж: 4 года 11 месяцев

Сообщений: 201

Создавать темы 03-Окт-2015 18:58

[Цитировать]

Осада / The Siege- Год выпуска: 1998
Выпущено: США / 20th Century Fox Film Corporation
Жанр: боевик, триллер, драма, криминал
Продолжительность: 01:56:05
Перевод: Профессиональный (полное дублирование)
Cубтитры: нет-Режиссер:
Эдвард Цвик / Edward Zwick-В ролях:
Дензел Вашингтон, Брюс Уиллис, Аннетт Бенинг, Тони Шэлоуб, Сами Буажила, Дэвид Прувэл, Лэнс Реддик, Марк Вэлли, Лиэна Пэй, Джек Гуолтни, Чип Зин-Описание:
Когда в Бруклине взлетает на воздух автобус и на улицах Нью-Йорка разворачивается кровавый террор, Хаб — Хаббарт, глава Объединенного Антитеррористического Подразделения ФБР получает задание задержать террористов и предъявить им обвинение. Элиза Крафт — тайный оперативный агент ЦРУ. Она обладает ценными источниками информации в среде американцев арабского происхождения и тесно связана с ними.
Хаб и Элиза работают вместе, объединившись для совместной борьбы против террористической группы. Но этого оказывается недостаточно. Требования общественности обеспечить безопасность граждан вынуждают президента США объявить чрезвычайное положение и обратиться за помощью к армии. Генерал Уильям Деверо решительно берется за дело по наведению военного порядка.- -Качество: BDRip
Формат: AVI
Видео кодек: XviD
Аудио кодек: AC3
Видео: 720x304 (2.37:1), 23.976 fps, XviD build 73 ~1406 kbps avg, 0.27 bit/pixel
Аудио: 48 kHz, AC3 Dolby Digital, 3/2 (L,C,R,l,r) + LFE ch, ~384.00 kbps avg
-
Скриншоты
MediaInfo
General
Complete name                            : D:\Osada_1998_BDRip_by_Dalemake.avi
Format                                   : AVI
Format/Info                              : Audio Video Interleave
File size                                : 1.46 GiB
Duration                                 : 1h 56mn
Overall bit rate                         : 1 800 Kbps
Writing application                      : VirtualDubMod 1.5.10.3 | www.virtualdub-fr.org || (build 2550/release)
Writing library                          : VirtualDubMod build 2550/release
[br]
Video
ID                                       : 0
Format                                   : MPEG-4 Visual
Format profile                           : Advanced Simple@L5
Format settings, BVOP                    : 1
Format settings, QPel                    : No
Format settings, GMC                     : No warppoints
Format settings, Matrix                  : Custom
Codec ID                                 : XVID
Codec ID/Hint                            : XviD
Duration                                 : 1h 56mn
Bit rate                                 : 1 407 Kbps
Width                                    : 720 pixels
Height                                   : 304 pixels
Display aspect ratio                     : 2.35:1
Frame rate                               : 23.976 fps
Color space                              : YUV
Chroma subsampling                       : 4:2:0
Bit depth                                : 8 bits
Scan type                                : Progressive
Compression mode                         : Lossy
Bits/(Pixel*Frame)                       : 0.268
Stream size                              : 1.14 GiB (78%)
Writing library                          : XviD 73
[br]
Audio
ID                                       : 1
Format                                   : AC-3
Format/Info                              : Audio Coding 3
Mode extension                           : CM (complete main)
Format settings, Endianness              : Big
Codec ID                                 : 2000
Duration                                 : 1h 56mn
Bit rate mode                            : Constant
Bit rate                                 : 384 Kbps
Channel(s)                               : 6 channels
Channel positions                        : Front: L C R, Side: L R, LFE
Sampling rate                            : 48.0 KHz
Bit depth                                : 16 bits
Compression mode                         : Lossy
Stream size                              : 319 MiB (21%)
Alignment                                : Split accross interleaves
Interleave, duration                     : 42 ms (1.00 video frame)
Interleave, preload duration             : 500 ms
[reactorr.org].t71927.torrent
Торрент: Зарегистрирован [ 03-10-2015 18:58 ] · 52C0B1391C58B1C66373DCEEBEA5C3165C63BBAE

Скачать .torrent

Скачать

15 KB

Статус: проверено
Скачан: 1 раз
Размер: 1,46 GB
terms.php
[Профиль] [ЛС]
Показать сообщения:    
Ответить на тему

Текущее время: 23-Июн 23:36

Часовой пояс: UTC + 3



Вы не можете начинать темы
Вы не можете отвечать на сообщения
Вы не можете редактировать свои сообщения
Вы не можете удалять свои сообщения
Вы не можете голосовать в опросах
Вы не можете прикреплять файлы к сообщениям
Вы можете скачивать файлы