Плохие парни / Bad Boys (Майкл Бэй / Michael Bay) [1995, США, Боевик, триллер, драма, комедия, криминал, BDRip] Dub

Ответить на тему
Статистика раздачи
Размер:  1,46 GB   |    Зарегистрирован:  1 год 4 месяца   |    Скачан:  0 раз
Сидов:  122  [  0 KB/s  ]   Личеров:  1  [  0 KB/s  ]   Подробная статистика пиров
 
     
 
 
Автор Сообщение

Skillters ®

Пол: Мужской

Стаж: 4 года 7 месяцев

Сообщений: 201

Создавать темы 05-Окт-2015 19:22

[Цитировать]

Плохие парни / Bad Boys
«Лучшие друзья. Отличные полицейские. Преступность обречена»
- Год выпуска: 1995
Выпущено: США / Don Simpson / Jerry Bruckheimer Films
Жанр: боевик, триллер, драма, комедия, криминал
Продолжительность: 01:58:51
Перевод: Профессиональный (полное дублирование) BD CEE
Cубтитры: нет-Режиссер:
Майкл Бэй / Michael Bay-В ролях:
Мартин Лоуренс, Уилл Смит, Теа Леони, Чеки Карио, Тереза Рэндл, Мардж Хелгенбергер, Нестор Серрано, Хулио Оскар Мекозо, Саверио Гуэрра-Описание:
Они — полная противоположность друг друга. Один из них — примерный семьянин и не имеет состояния, другой богат и пользуется всеми благами холостяцкой жизни. Помимо дружбы их объединяет работа в полиции.
Их новое задание — поймать жестокого преступника, укравшего наркотики с секретного склада, а также спасти девушку, которая случайно оказалась на его пути. Но для этого друзьям придется поменяться местами…- -Качество: BDRip (Исходник: Blu-ray disc)
Формат: AVI
Видео кодек: XviD
Аудио кодек: AC3
Видео: 704x384 (1.83:1), 23.976 fps, XviD build 73 ~1362 kbps avg, 0.21 bit/pixel
Аудио: 48 kHz, AC3 Dolby Digital, 3/2 (L,C,R,l,r) + LFE ch, ~384.00 kbps avg
-
Скриншоты
MediaInfo
General
Complete name                            : D:\Plohie_parni_1995_BDRip_by_Dalemake.avi
Format                                   : AVI
Format/Info                              : Audio Video Interleave
File size                                : 1.46 GiB
Duration                                 : 1h 58mn
Overall bit rate                         : 1 756 Kbps
Writing application                      : VirtualDubMod 1.5.10.3 | www.virtualdub-fr.org || (build 2550/release)
Writing library                          : VirtualDubMod build 2550/release
[br]
Video
ID                                       : 0
Format                                   : MPEG-4 Visual
Format profile                           : Advanced Simple@L5
Format settings, BVOP                    : 1
Format settings, QPel                    : No
Format settings, GMC                     : No warppoints
Format settings, Matrix                  : Custom
Codec ID                                 : XVID
Codec ID/Hint                            : XviD
Duration                                 : 1h 58mn
Bit rate                                 : 1 363 Kbps
Width                                    : 704 pixels
Height                                   : 384 pixels
Display aspect ratio                     : 1.85:1
Frame rate                               : 23.976 fps
Color space                              : YUV
Chroma subsampling                       : 4:2:0
Bit depth                                : 8 bits
Scan type                                : Progressive
Compression mode                         : Lossy
Bits/(Pixel*Frame)                       : 0.210
Stream size                              : 1.13 GiB (78%)
Writing library                          : XviD 73
[br]
Audio
ID                                       : 1
Format                                   : AC-3
Format/Info                              : Audio Coding 3
Mode extension                           : CM (complete main)
Format settings, Endianness              : Big
Codec ID                                 : 2000
Duration                                 : 1h 58mn
Bit rate mode                            : Constant
Bit rate                                 : 384 Kbps
Channel(s)                               : 6 channels
Channel positions                        : Front: L C R, Side: L R, LFE
Sampling rate                            : 48.0 KHz
Bit depth                                : 16 bits
Compression mode                         : Lossy
Stream size                              : 326 MiB (22%)
Alignment                                : Split accross interleaves
Interleave, duration                     : 42 ms (1.00 video frame)
Interleave, preload duration             : 500 ms
[reactorr.org].t71986.torrent
Торрент: Зарегистрирован [ 05-10-2015 19:22 ] · 07540F5A17554F887E63B9EE9FB14A58614F07D7

Скачать .torrent

Скачать

15 KB

Статус: проверено
Скачан: 0 раз
Размер: 1,46 GB
terms.php
[Профиль] [ЛС]
Показать сообщения:    
Ответить на тему

Текущее время: 25-Фев 21:55

Часовой пояс: UTC + 3



Вы не можете начинать темы
Вы не можете отвечать на сообщения
Вы не можете редактировать свои сообщения
Вы не можете удалять свои сообщения
Вы не можете голосовать в опросах
Вы не можете прикреплять файлы к сообщениям
Вы можете скачивать файлы