Второй шанс / Gridiron Gang (Фил Джоану / Phil Joanou) [2006, США, Драма, криминал, спорт, BDRip] МVO

Ответить на тему
Статистика раздачи
Размер:  1,46 GB   |    Зарегистрирован:  1 год 11 месяцев   |    Скачан:  1 раз

Полного источника не было: 8 месяцев 24 дня

 
     
 
 
Автор Сообщение

Skillters ®

Пол: Мужской

Стаж: 5 лет 2 месяца

Сообщений: 201

Создавать темы 09-Окт-2015 21:34

[Цитировать]

Второй шанс / Gridiron Gang
«Их считали людьми второго сорта. Им же был просто нужен второй шанс»
- Год выпуска: 2006
Выпущено: США / Columbia Pictures Industries Inc.
Жанр: драма, криминал, спорт
Продолжительность: 02:05:17
Перевод: Профессиональный (многоголосый закадровый)
Cубтитры: нет-Режиссер:
Фил Джоану / Phil Joanou-В ролях:
Дуэйн Джонсон, Иксзибит, Л. Скотт Колдуэлл, Леон Риппи, Кевин Данн, Джейд Йоркер, Дэвид Томас, Мо, Джеймс Эрл, Брэндон Смит, Джерни Смоллетт, Майкл Дж. Паган, Арти Бакстер, Омари Хардвик-Описание:
Кажется, что те, кто уже серьезно оступился однажды и отбывает срок в исправительном учреждении, обречены, но может ли жизнь предоставить еще один шанс?! Особенно если есть человек, способный помочь. Помогут ли футбол и командный дух его воспитанникам вновь обрести чувство собственного достоинства и встать на путь исправления?!- -Качество: BDRip
Формат: AVI
Видео кодек: XviD
Аудио кодек: AC3
Видео: 720x304 (2.35:1), 23.976 fps, XviD MPEG-4 ~1461 kbps avg, 0.278 bit/pixel
Audio: 48 kHz, AC3 Dolby Digital, 2/0 (L,R) ch, ~192 kbps
-
Скриншоты
MediaInfo
General
Complete name                            : D:\Vtoroi_shans_2006_BDRip_by_Dalemake.avi
Format                                   : AVI
Format/Info                              : Audio Video Interleave
File size                                : 1.46 GiB
Duration                                 : 2h 5mn
Overall bit rate                         : 1 669 Kbps
Writing application                      : VirtualDubMod 1.5.10.3 | www.virtualdub-fr.org || (build 2550/release)
Writing library                          : VirtualDubMod build 2550/release
[br]
Video
ID                                       : 0
Format                                   : MPEG-4 Visual
Format profile                           : Advanced Simple@L5
Format settings, BVOP                    : 1
Format settings, QPel                    : No
Format settings, GMC                     : No warppoints
Format settings, Matrix                  : Custom
Codec ID                                 : XVID
Codec ID/Hint                            : XviD
Duration                                 : 2h 5mn
Bit rate                                 : 1 276 Kbps
Width                                    : 720 pixels
Height                                   : 304 pixels
Display aspect ratio                     : 2.35:1
Frame rate                               : 23.976 fps
Color space                              : YUV
Chroma subsampling                       : 4:2:0
Bit depth                                : 8 bits
Scan type                                : Progressive
Compression mode                         : Lossy
Bits/(Pixel*Frame)                       : 0.243
Stream size                              : 1.12 GiB (76%)
Writing library                          : XviD 73
[br]
Audio
ID                                       : 1
Format                                   : AC-3
Format/Info                              : Audio Coding 3
Mode extension                           : CM (complete main)
Format settings, Endianness              : Big
Codec ID                                 : 2000
Duration                                 : 2h 5mn
Bit rate mode                            : Constant
Bit rate                                 : 384 Kbps
Channel(s)                               : 6 channels
Channel positions                        : Front: L C R, Side: L R, LFE
Sampling rate                            : 48.0 KHz
Bit depth                                : 16 bits
Compression mode                         : Lossy
Stream size                              : 344 MiB (23%)
Alignment                                : Split accross interleaves
Interleave, duration                     : 42 ms (1.00 video frame)
Interleave, preload duration             : 500 ms
[reactorr.org].t72002.torrent
Торрент: Зарегистрирован [ 09-10-2015 21:34 ] · 0E7B14ABE5DC40E1D9880AD2DDCC61A9257657E0

Скачать .torrent

Скачать

15 KB

Статус: проверено
Скачан: 1 раз
Размер: 1,46 GB
terms.php
[Профиль] [ЛС]
Показать сообщения:    
Ответить на тему

Текущее время: 23-Сен 04:58

Часовой пояс: UTC + 3



Вы не можете начинать темы
Вы не можете отвечать на сообщения
Вы не можете редактировать свои сообщения
Вы не можете удалять свои сообщения
Вы не можете голосовать в опросах
Вы не можете прикреплять файлы к сообщениям
Вы можете скачивать файлы