Обитель зла 1, 2, 3, 4, 5 / Resident Evil 1, 2, 3, 4, 5 (Пол У. С. Андерсон / Paul W.S. Anderson, Александр Уитт / Alexander Witt) [2002, 2004, 2007, 2010, 2012, США, Ужасы, фантастика, боевик, триллер, BDRip] Dub + Original (Eng) + Subs (Rus, Eng)

Ответить на тему
Статистика раздачи
Размер:  4,08 GB   |    Зарегистрирован:  2 года 8 месяцев   |    Скачан:  2 раза
Сидов:  8  [  0 KB/s  ]   Личеров:  6  [  0 KB/s  ]   Подробная статистика пиров
 
     
 
 
Автор Сообщение

aura ®

Пол: Не указан

Стаж: 6 лет 1 месяц

Сообщений: 1

Создавать темы 09-Окт-2014 17:23

[Цитировать]

Обитель зла 1, 2, 3, 4, 5 / Resident Evil 1, 2, 3, 4, 5
«Пенталогия»
- - -
Обитель зла
Обитель зла / Resident Evil- Год выпуска: 2002
Выпущено: Германия, США / Constantin Film Produktion GmbH
Жанр: ужасы, фантастика, боевик
Продолжительность: 01:40:30
Перевод: Профессиональный (полное дублирование) + Оригинальная дорожка
Cубтитры: Русские, Английские (внешние .srt*)-Режиссер:
Пол У. С. Андерсон / Paul W.S. Anderson-В ролях:
Милла Йовович (Alice), Мишель Родригес (Rain), Эрик Мэбиас (Matt), Джеймс Пьюрфой (Spence), Мартин Крюз (Kaplan), Колин Сэлмон (One), Райан МакКласки (Mr. Grey), Оскар Пирс (Mr. Red), Индра Ове (Ms. Black), Анна Болт (Dr. Green), Джозеф Мэй (Dr. Blue)-Описание:
В гигантской подземной лаборатории на волю вырывается опаснейший вирус, мгновенно превращая своих жертв в прожорливых зомби. Достаточно одного их укуса или царапины страшных когтей, чтобы человек стал обезумевшим пожирателем живой плоти. Военные посылают в секретный комплекс, кишащий ужасными мутировавшими животными и голодными монстрами, группу спецназа, к которой присоединяются очаровательная Элис и отважный полицейский Мэтт. У них есть только три часа, чтобы уничтожить вирус до того, как он распространится по всей Земле…-| IMDB | КиноПоиск | Сэмпл |-Качество: BDRip [BDRemux]
Формат: AVI
Видео: 656x352 (1.86:1), 23.976 fps, XviD build 73 ~900 kbps avg, 0.16 bit/pixel
Аудио #1: 48 kHz, MPEG Layer 3, 2 ch, ~128.00 kbps avg (RUS)
Аудио #2: 48 kHz, MPEG Layer 3, 2 ch, ~128.00 kbps avg (ENG) отдельно
-
Скриншоты
MediaInfo
General
Complete name                            : D:\Obitel`_zla_1_2002_BDRip_by_Dalemake.avi
Format                                   : AVI
Format/Info                              : Audio Video Interleave
File size                                : 747 MiB
Duration                                 : 1h 40mn
Overall bit rate                         : 1 038 Kbps
Writing application                      : VirtualDubMod 1.5.10.3 | www.virtualdub-fr.org || (build 2550/release)
Writing library                          : VirtualDubMod build 2550/release
[br]
Video
ID                                       : 0
Format                                   : MPEG-4 Visual
Format profile                           : Advanced Simple@L5
Format settings, BVOP                    : 1
Format settings, QPel                    : No
Format settings, GMC                     : No warppoints
Format settings, Matrix                  : Custom
Codec ID                                 : XVID
Codec ID/Hint                            : XviD
Duration                                 : 1h 40mn
Bit rate                                 : 901 Kbps
Width                                    : 656 pixels
Height                                   : 352 pixels
Display aspect ratio                     : 1.85:1
Frame rate                               : 23.976 fps
Color space                              : YUV
Chroma subsampling                       : 4:2:0
Bit depth                                : 8 bits
Scan type                                : Progressive
Compression mode                         : Lossy
Bits/(Pixel*Frame)                       : 0.163
Stream size                              : 648 MiB (87%)
Writing library                          : XviD 73
[br]
Audio
ID                                       : 1
Format                                   : MPEG Audio
Format version                           : Version 1
Format profile                           : Layer 3
Codec ID                                 : 55
Codec ID/Hint                            : MP3
Duration                                 : 1h 40mn
Bit rate mode                            : Constant
Bit rate                                 : 128 Kbps
Channel(s)                               : 2 channels
Sampling rate                            : 48.0 KHz
Compression mode                         : Lossy
Stream size                              : 92.0 MiB (12%)
Alignment                                : Aligned on interleaves
Interleave, duration                     : 42 ms (1.00 video frame)
Interleave, preload duration             : 504 ms
Writing library                          : LAME3.99r
Encoding settings                        : -m s -V 4 -q 2 -lowpass 17 -b 128
-
Обитель зла 2: Апокалипсис
Обитель зла 2: Апокалипсис / Resident Evil: Apocalypse
«Она прошла через катакомбы, кишащие зомби. Теперь на её пути целый город...»
- Год выпуска: 2004
Выпущено: Германия, Франция, Великобритания, Канада, США / Constantin Film Produktion GmbH
Жанр: ужасы, фантастика, боевик, триллер
Продолжительность: 01:33:48
Перевод: Профессиональный (полное дублирование) + Оригинальная дорожка
Cубтитры: Русские, Английские (внешние .srt*)-Режиссер:
Александр Уитт / Alexander Witt-В ролях:
Милла Йовович (Alice), Сиенна Гиллори (Jill Valentine), Одед Фер (Carlos Olivera), Томас Кречман (Major Tom Cain), Софи Вавасо (Angie Ashford), Разаак Адоти (Sgt. Peyton Wells), Джаред Харрис (Dr. Ashford), Майк Эппс (L.J.), Сандрин Холт (Terri Morales), Мэттью Дж. Тейлор (Nemesis)-Описание:
Действие картины разворачивается на улицах печально известного Ракун-сити, города, контролируемого могущественной корпорацией «Амбрелла».
После бактериологической катастрофы все жители стали медленно превращаться в зомби, а те немногочисленные граждане, чей разум ещё не был до конца изъеден ужасным вирусом, доживали свои последние дни в атмосфере страха и желания скорейшей смерти…-| IMDB | КиноПоиск | Сэмпл |-Качество: BDRip [BDRemux]
Формат: AVI
Видео: 688x288 (2.39:1), 23.976 fps, XviD build 73 ~975 kbps avg, 0.21 bit/pixel
Аудио #1: 48 kHz, MPEG Layer 3, 2 ch, ~128.00 kbps avg (RUS)
Аудио #2: 48 kHz, MPEG Layer 3, 2 ch, ~128.00 kbps avg (ENG) отдельно
-
Скриншоты
MediaInfo
General
Complete name                            : D:\Obitel`_zla_2_Apokalipsis_2004_BDRip_by_Dalemake.avi
Format                                   : AVI
Format/Info                              : Audio Video Interleave
File size                                : 747 MiB
Duration                                 : 1h 33mn
Overall bit rate                         : 1 113 Kbps
Writing application                      : VirtualDubMod 1.5.10.3 | www.virtualdub-fr.org || (build 2550/release)
Writing library                          : VirtualDubMod build 2550/release
[br]
Video
ID                                       : 0
Format                                   : MPEG-4 Visual
Format profile                           : Advanced Simple@L5
Format settings, BVOP                    : 1
Format settings, QPel                    : No
Format settings, GMC                     : No warppoints
Format settings, Matrix                  : Custom
Codec ID                                 : XVID
Codec ID/Hint                            : XviD
Duration                                 : 1h 33mn
Bit rate                                 : 975 Kbps
Width                                    : 688 pixels
Height                                   : 288 pixels
Display aspect ratio                     : 2.40:1
Frame rate                               : 23.976 fps
Color space                              : YUV
Chroma subsampling                       : 4:2:0
Bit depth                                : 8 bits
Scan type                                : Progressive
Compression mode                         : Lossy
Bits/(Pixel*Frame)                       : 0.205
Stream size                              : 654 MiB (88%)
Writing library                          : XviD 73
[br]
Audio
ID                                       : 1
Format                                   : MPEG Audio
Format version                           : Version 1
Format profile                           : Layer 3
Codec ID                                 : 55
Codec ID/Hint                            : MP3
Duration                                 : 1h 33mn
Bit rate mode                            : Constant
Bit rate                                 : 128 Kbps
Channel(s)                               : 2 channels
Sampling rate                            : 48.0 KHz
Compression mode                         : Lossy
Stream size                              : 85.9 MiB (12%)
Alignment                                : Aligned on interleaves
Interleave, duration                     : 42 ms (1.00 video frame)
Interleave, preload duration             : 504 ms
Writing library                          : LAME3.99r
Encoding settings                        : -m s -V 4 -q 2 -lowpass 17 -b 128
-
Обитель зла 3: Вымирание
Обитель зла 3 / Resident Evil: Extinction
«На этот раз без компромиссов»
- Год выпуска: 2007
Выпущено: Германия, США, Франция, Австралия, Великобритания / Constantin Film Produktion GmbH
Жанр: ужасы, фантастика, боевик, триллер
Продолжительность: 01:34:05
Перевод: Профессиональный (полное дублирование) + Оригинальная дорожка
Cубтитры: Русские, Английские (внешние .srt*)-Режиссер:
Пол У. С. Андерсон / Paul W.S. Anderson-В ролях:
Милла Йовович (Alice), Одед Фер (Carlos Olivera), Эли Лартер (Claire), Иэн Глен (Dr. Isaacs), Ашанти (Betty), Кристофер Иган (Mikey), Спенсер Лок (K-Mart), Мэттью Мэрсден (Slater), Линден Эшби (Chase), Джейсон О’Мара (Albert Wesker), Майк Эппс (L.J.)-Описание:
Элис, не раз уже спасавшая мир от смертельных вирусов и неминуемой гибели, вновь взялась за оружие. На этот раз ей предстоит сразиться с корпорацией «Амбрелла», работающей над реализацией зверского антигуманного проекта. Коварные политики и прагматичные ученые стремятся уничтожить людей и заменить их на более «совершенные» создания, заселив Землю неуязвимыми бессмертными клонами…-| IMDB | КиноПоиск | Сэмпл |-Качество: BDRip [BDRemux]
Формат: AVI
Видео: 688x288 (2.39:1), 23.976 fps, XviD build 73 ~966 kbps avg, 0.20 bit/pixel
Аудио #1: 48 kHz, MPEG Layer 3, 2 ch, ~128.00 kbps avg (RUS)
Аудио #2: 48 kHz, MPEG Layer 3, 2 ch, ~128.00 kbps avg (ENG) отдельно
-
Скриншоты
MediaInfo
General
Complete name                            : D:\Obitel`_zla_3_Vymiranie_2007_BDRip_by_Dalemake.avi
Format                                   : AVI
Format/Info                              : Audio Video Interleave
File size                                : 743 MiB
Duration                                 : 1h 34mn
Overall bit rate                         : 1 104 Kbps
Writing application                      : VirtualDubMod 1.5.10.3 | www.virtualdub-fr.org || (build 2550/release)
Writing library                          : VirtualDubMod build 2550/release
[br]
Video
ID                                       : 0
Format                                   : MPEG-4 Visual
Format profile                           : Advanced Simple@L5
Format settings, BVOP                    : 1
Format settings, QPel                    : No
Format settings, GMC                     : No warppoints
Format settings, Matrix                  : Custom
Codec ID                                 : XVID
Codec ID/Hint                            : XviD
Duration                                 : 1h 34mn
Bit rate                                 : 967 Kbps
Width                                    : 688 pixels
Height                                   : 288 pixels
Display aspect ratio                     : 2.40:1
Frame rate                               : 23.976 fps
Color space                              : YUV
Chroma subsampling                       : 4:2:0
Bit depth                                : 8 bits
Scan type                                : Progressive
Compression mode                         : Lossy
Bits/(Pixel*Frame)                       : 0.204
Stream size                              : 651 MiB (88%)
Writing library                          : XviD 73
[br]
Audio
ID                                       : 1
Format                                   : MPEG Audio
Format version                           : Version 1
Format profile                           : Layer 3
Codec ID                                 : 55
Codec ID/Hint                            : MP3
Duration                                 : 1h 34mn
Bit rate mode                            : Constant
Bit rate                                 : 128 Kbps
Channel(s)                               : 2 channels
Sampling rate                            : 48.0 KHz
Compression mode                         : Lossy
Stream size                              : 86.1 MiB (12%)
Alignment                                : Aligned on interleaves
Interleave, duration                     : 42 ms (1.00 video frame)
Interleave, preload duration             : 504 ms
Writing library                          : LAME3.99r
Encoding settings                        : -m s -V 4 -q 2 -lowpass 17 -b 128
-
Обитель зла 4: Жизнь после смерти
Обитель зла 4: Жизнь после смерти / Resident Evil: Afterlife
«Испытайте новое измерение зла»
- Год выпуска: 2010
Выпущено: Германия, Франция, США, Канада / Constantin Film Produktion GmbH
Жанр: ужасы, фантастика, боевик, триллер
Продолжительность: 01:36:52
Перевод: Профессиональный (полное дублирование) + Оригинальная дорожка
Cубтитры: Русские (полные + форсированные (на иностранную речь + надписи)), Английские (внешние .srt*)-Режиссер:
Пол У. С. Андерсон / Paul W.S. Anderson-В ролях:
Милла Йовович (Alice), Эли Лартер (Claire Redfield), Вентворт Миллер (Chris Redfield), Борис Коджо (Luther), Ким Коутс (Bennett), Шон Робертс (Albert Wesker), Серхио Перис-Менчета (Angel), Спенсер Лок (K-Mart), Сиенна Гиллори (Jill Valentine), Кейси Барнфилд (Crystal Waters)-Описание:
Элис продолжает свой путь в мире, поражённом вирусной инфекцией, превращающей людей в нежить. Героиня ищет оставшихся в живых, чтобы вывести их в безопасное место. Её смертельная битва с корпорацией Амбрелла выходит на новый уровень…-| IMDB | КиноПоиск | Сэмпл |-Качество: BDRip [BDRemux]
Формат: AVI
Видео: 688x288 (2.39:1), 23.976 fps, XviD build 73 ~943 kbps avg, 0.20 bit/pixel
Аудио #1: 48 kHz, MPEG Layer 3, 2 ch, ~128.00 kbps avg (RUS)
Аудио #2: 48 kHz, MPEG Layer 3, 2 ch, ~128.00 kbps avg (ENG) отдельно
-
Скриншоты
MediaInfo
General
Complete name                            : D:\Obitel`_zla_4_Zhizn`_posle_smerti_2010_BDRip_by_Dalemake.avi
Format                                   : AVI
Format/Info                              : Audio Video Interleave
File size                                : 749 MiB
Duration                                 : 1h 36mn
Overall bit rate                         : 1 081 Kbps
Writing application                      : VirtualDubMod 1.5.10.3 | www.virtualdub-fr.org || (build 2550/release)
Writing library                          : VirtualDubMod build 2550/release
[br]
Video
ID                                       : 0
Format                                   : MPEG-4 Visual
Format profile                           : Advanced Simple@L5
Format settings, BVOP                    : 1
Format settings, QPel                    : No
Format settings, GMC                     : No warppoints
Format settings, Matrix                  : Custom
Codec ID                                 : XVID
Codec ID/Hint                            : XviD
Duration                                 : 1h 36mn
Bit rate                                 : 944 Kbps
Width                                    : 688 pixels
Height                                   : 288 pixels
Display aspect ratio                     : 2.40:1
Frame rate                               : 23.976 fps
Color space                              : YUV
Chroma subsampling                       : 4:2:0
Bit depth                                : 8 bits
Scan type                                : Progressive
Compression mode                         : Lossy
Bits/(Pixel*Frame)                       : 0.199
Stream size                              : 654 MiB (87%)
Writing library                          : XviD 73
[br]
Audio
ID                                       : 1
Format                                   : MPEG Audio
Format version                           : Version 1
Format profile                           : Layer 3
Codec ID                                 : 55
Codec ID/Hint                            : MP3
Duration                                 : 1h 36mn
Bit rate mode                            : Constant
Bit rate                                 : 128 Kbps
Channel(s)                               : 2 channels
Sampling rate                            : 48.0 KHz
Compression mode                         : Lossy
Stream size                              : 88.7 MiB (12%)
Alignment                                : Aligned on interleaves
Interleave, duration                     : 42 ms (1.00 video frame)
Interleave, preload duration             : 504 ms
Writing library                          : LAME3.99r
Encoding settings                        : -m s -V 4 -q 2 -lowpass 17 -b 128
-
Обитель зла 5: Возмездие
Обитель зла: Возмездие / Resident Evil: Retribution- Год выпуска: 2010
Выпущено: Германия, Канада, США, Франция / Constantin Film International
Жанр: ужасы, фантастика, боевик, триллер
Продолжительность: 01:35:37
Перевод: Профессиональный (полное дублирование) + Оригинальная дорожка
Cубтитры: Русские, Английские (внешние .srt*)-Режиссер:
Пол У. С. Андерсон / Paul W.S. Anderson-В ролях:
Милла Йовович (Alice), Сиенна Гиллори (Jill Valentine), Йохан Урб (Leon S. Kennedy), Ли Бинбин (Ada Wong), Ариана Энджинир (Becky), Мишель Родригес (Rain), Борис Коджо (Luther West), Кевин Дюран (Barry Burton), Одед Фер (Carlos), Колин Сэлмон (James «One» Shade)-Описание:
Смертельный T-вирус, созданный в лабораториях корпорации «Амбрелла», продолжает захватывать Землю, превращая мировое население в легионы пожирающих плоть зомби. Последняя надежда человечества Элис внедряется в самое сердце самой тайной исследовательской базы корпорации и узнает еще больше о собственном таинственном прошлом. Не имея путей к отступлению, Элис продолжает искать виновных в глобальной катастрофе. Вызов, который она принимала в Токио, Нью-Йорке, Вашингтоне и даже в Москве, приводит ее в итоге к взрывающему сознание откровению, которое заставит ее переосмыслить все, что она полагала правдой. С помощью новых союзников и старых друзей, Элис будет сражаться за выживание и убегать из враждебного мира. Отсчет времени начат…-| IMDB | КиноПоиск | Сэмпл |-Качество: BDRip [Blu-ray Disc]
Формат: AVI
Видео: 688x288 (2.39:1), 23.976 fps, XviD build 73 ~957 kbps avg, 0.20 bit/pixel
Аудио #1: 48 kHz, MPEG Layer 3, 2 ch, ~128.00 kbps avg (RUS)
Аудио #2: 48 kHz, MPEG Layer 3, 2 ch, ~128.00 kbps avg (ENG) отдельно
-
Скриншоты
MediaInfo
General
Complete name                            : D:\Obitel`_zla_5_Vozmezdie_2012_BDRip_by_Dalemake.avi
Format                                   : AVI
Format/Info                              : Audio Video Interleave
File size                                : 749 MiB
Duration                                 : 1h 35mn
Overall bit rate                         : 1 095 Kbps
Writing application                      : VirtualDubMod 1.5.10.3 | www.virtualdub-fr.org || (build 2550/release)
Writing library                          : VirtualDubMod build 2550/release
[br]
Video
ID                                       : 0
Format                                   : MPEG-4 Visual
Format profile                           : Advanced Simple@L5
Format settings, BVOP                    : 1
Format settings, QPel                    : No
Format settings, GMC                     : No warppoints
Format settings, Matrix                  : Custom
Codec ID                                 : XVID
Codec ID/Hint                            : XviD
Duration                                 : 1h 35mn
Bit rate                                 : 958 Kbps
Width                                    : 688 pixels
Height                                   : 288 pixels
Display aspect ratio                     : 2.40:1
Frame rate                               : 23.976 fps
Color space                              : YUV
Chroma subsampling                       : 4:2:0
Bit depth                                : 8 bits
Scan type                                : Progressive
Compression mode                         : Lossy
Bits/(Pixel*Frame)                       : 0.202
Stream size                              : 655 MiB (87%)
Writing library                          : XviD 73
[br]
Audio
ID                                       : 1
Format                                   : MPEG Audio
Format version                           : Version 1
Format profile                           : Layer 3
Codec ID                                 : 55
Codec ID/Hint                            : MP3
Duration                                 : 1h 35mn
Bit rate mode                            : Constant
Bit rate                                 : 128 Kbps
Channel(s)                               : 2 channels
Sampling rate                            : 48.0 KHz
Compression mode                         : Lossy
Stream size                              : 87.6 MiB (12%)
Alignment                                : Aligned on interleaves
Interleave, duration                     : 42 ms (1.00 video frame)
Interleave, preload duration             : 504 ms
Writing library                          : LAME3.99r
Encoding settings                        : -m s -V 4 -q 2 -lowpass 17 -b 128
-
-Релиз групп | | (745 Mb) |-
[reactorr.org].t65167.torrent
Торрент: Зарегистрирован [ 09-10-2014 17:23 ] · 682BF024CC2C0E045111682B85E74E66E4561D7B

Скачать .torrent

Скачать

14 KB

Статус: проверено
Скачан: 2 раз
Размер: 4,08 GB
terms.php
[Профиль] [ЛС]

samsonmax21

Пол: Не указан

Стаж: 1 год 6 месяцев

Сообщений: 1

Создавать темы 28-Ноя-2015 09:51 (спустя 1 год 1 месяц)

[Цитировать]

ура сабы огромное спасибо
[Профиль] [ЛС]
Показать сообщения:    
Ответить на тему

Текущее время: 26-Июн 20:26

Часовой пояс: UTC + 3



Вы не можете начинать темы
Вы не можете отвечать на сообщения
Вы не можете редактировать свои сообщения
Вы не можете удалять свои сообщения
Вы не можете голосовать в опросах
Вы не можете прикреплять файлы к сообщениям
Вы можете скачивать файлы